Детектив Конан: Реквием частных сыщиков / Detective Conan: Tantei-tachi no Requiem (2006) HDRip | L

Ответить на тему
Статистика раздачи [Обновить пиров]
Размер:  1,41 GB   |    Зарегистрирован:  1 год 11 месяцев   |    .torrent скачан:  7 раз
Раздают:  1  [  0 KB/s  ]   Качают:  3  [  0 KB/s  ]   Подробная статистика пиров
 
   
 
 
 
Автор Сообщение

4udaki ®

Оффлайн

Медали


Пол: Мужской

Стаж: 6 лет 11 месяцев

Наличие запрета:

Сообщений: 11563

Откуда: korsars.pro

Отдача: 2 Mb/s

Загрузка: 20 Mb/s

Нажми


Скачать Adguard бесплатно

Создавать темы 25-Окт-2019 17:00

[Цитировать]

Детектив Конан (фильм 10):Реквием частных сыщиков / Detective Conan: Tantei-tachi no Requiem / Metective Conan: The Private Eyes' Requiem

Информация о фильме
Название: Детектив Конан 10: Реквием частных сыщиков
Оригинальное название: Meitantei Conan: Tantei-tachi no Requiem
Год выхода: 2006
Жанр: приключения, детектив
Режиссер: Ямамото Ясуйтиро
О фильме:
Мори Koгорo и Конан приезжают в Йокогаму по просьбе таинственного человека, но это оказывается подстроенной ловушкой. Ран и молодые детективы становятся заложниками. Если в течении 12 часов не будет разгадана загадка таинственного человека, то взорвется бомба. Кроме того, незнакомец знает, что истинная личность Конана - это Кудо Шиничи. Смогут ли они выполнить задание в срок, а также выяснить личность клиента?
Доп. информация:
Релиз GSGroup


Страна: Япония
Студия: TMS
Продолжительность: 01:51:00
Перевод: Любительский одноголосый (Persona99)
Файл
Кодек: XviD
Качество: HDRip
Видео: 720x400, 23.976 fps, 1422 Kbps, 8 bits
Звук:
1. AC3 48 КГц; 192 Кбит/сек, 2 ch Язык Русский (в составе контейнера) ; Озвучка: Любительский одноголосый (Persona99)
2. AC3 48 КГц; 192 Кбит/сек, 2 ch, Язык Японский ; Озвучка 2: Оригинал
Субтитры: ass, srt Язык субтитров русский ; Перевод, wquolz, тайминг: Roaring_Lion
Sempl:

Подробные тех. данные

General
Complete name : Detective Conan Movie 10 (2006)Detective Conan Movie_10 Tantei-tachi no Requiem.[Persona99].2006.(XviD.720x400.AC3).rus.jpn.avi
Format : AVI
Format/Info : Audio Video Interleave
File size : 1.41 GiB
Duration : 1h 50mn
Overall bit rate : 1 820 Kbps
Writing application : VirtualDubMod 1.5.10.2 (build 2540/release)
Writing library : VirtualDubMod build 2540/release
Video
ID : 0
Format : MPEG-4 Visual
Format profile : Advanced Simple@L5
Format settings, BVOP : 2
Format settings, QPel : No
Format settings, GMC : No warppoints
Format settings, Matrix : Default (H.263)
Codec ID : XVID
Codec ID/Hint : XviD
Duration : 1h 50mn
Bit rate : 1 422 Kbps
Width : 720 pixels
Height : 400 pixels
Display aspect ratio : 16:9
Frame rate : 23.976 fps
Color space : YUV
Chroma subsampling : 4:2:0
Bit depth : 8 bits
Scan type : Progressive
Compression mode : Lossy
Bits/(Pixel*Frame) : 0.206
Stream size : 1.10 GiB (78%)
Writing library : XviD 67
Audio #1
ID : 1
Format : AC-3
Format/Info : Audio Coding 3
Mode extension : CM (complete main)
Format settings, Endianness : Big
Codec ID : 2000
Duration : 1h 50mn
Bit rate mode : Constant
Bit rate : 192 Kbps
Channel(s) : 2 channels
Channel positions : Front: L R
Sampling rate : 48.0 KHz
Compression mode : Lossy
Stream size : 152 MiB (11%)
Alignment : Split accross interleaves
Interleave, duration : 42 ms (1.00 video frame)
Interleave, preload duration : 500 ms
Audio #2
ID : 2
Format : AC-3
Format/Info : Audio Coding 3
Mode extension : CM (complete main)
Format settings, Endianness : Big
Codec ID : 2000
Duration : 1h 50mn
Bit rate mode : Constant
Bit rate : 192 Kbps
Channel(s) : 2 channels
Channel positions : Front: L R
Sampling rate : 48.0 KHz
Compression mode : Lossy
Stream size : 152 MiB (11%)
Alignment : Split accross interleaves
Interleave, duration : 42 ms (1.00 video frame)
Interleave, preload duration : 500 ms

Скриншоты

[korsars.pro].t23394.torrent 
Торрент: Зарегистрирован [ 2019-10-25 17:00 ] · 6309DE422CC06CD251AB054795EAF5E99B636595

Скачать .torrent

Размер .torrent файла 15 KB

Статус: проверено
.torrent скачан: 7 раз
Размер: 1,41 GB
Правила
Похожие темы

Вы не зарегистрированы на нашем сайте. Вам доступна для скачивания только часть контента. Чтобы увидеть весь контент сайта, пожалуйста, зарегистрироруйтесь.

Дешевый и быстрый Сидбокс

Ключи и пин-коды

Игры, Кредитные карты, IP-телефония, Интернет провайдеры, Мобильная связь, Спутниковое ТВ

Электронные книги

Бизнес и экономика, Дом, быт, семья, досуг, Санкт-Петербург, Компьютеры и интернет, Наука и образование, Техническая литература, Юридическая литература

Цифровые товары

iTunes & App Store, Базы данных, Дизайн, Доступ к ресурсам, Kарты продления, ключи, Фотографии, Шаблоны для сайтов

Программное обеспечение

Безопасность, Игры, PC, Интернет, Мобильная связь, Программирование, Продвижение сайтов (SEO), Утилиты
У Вас отключен VIP статус, поэтому Вам показывается реклама на сайте. Вы можете поддержать наш ресурс и приобрести VIP статус, тем самым отключив показ рекламы на сайте, а ещё VIP пользователи получают возможность

смотреть аниме онлайн в HD качестве

(не распространяется на раздел Flarrow Films), а так же получить 5 инвайтов, которыми можно поделиться с друзьями или знакомыми.
Дешевый и быстрый Сидбокс

Ключи и пин-коды

Игры, Кредитные карты, IP-телефония, Интернет провайдеры, Мобильная связь, Спутниковое ТВ

Электронные книги

Бизнес и экономика, Дом, быт, семья, досуг, Санкт-Петербург, Компьютеры и интернет, Наука и образование, Техническая литература, Юридическая литература

Цифровые товары

iTunes & App Store, Базы данных, Дизайн, Доступ к ресурсам, Kарты продления, ключи, Фотографии, Шаблоны для сайтов

Программное обеспечение

Безопасность, Игры, PC, Интернет, Мобильная связь, Программирование, Продвижение сайтов (SEO), Утилиты
[Профиль] [ЛС]

Создавать темы 25-Окт-2019 17:03 (спустя 3 минуты)

Топик был перенесен из форума Аниме в форум Фильмы (полнометражные аниме-фильмы)
Причина переноса: Правильный форум
4udaki
 
Показать сообщения:    
Ответить на тему

Текущее время: 20-Окт 11:35

Часовой пояс: UTC + 4



Вы не можете начинать темы
Вы не можете отвечать на сообщения
Вы не можете редактировать свои сообщения
Вы не можете удалять свои сообщения
Вы не можете голосовать в опросах
Вы не можете прикреплять файлы к сообщениям
Вы можете скачивать файлы
Анализ сайта korsars.pro Яндекс.Метрика