Восхождение героя щита / Tate no Yuusha no Nariagari [S01] (2019) BDRip | P | Kansai

Ответить на тему
Статистика раздачи [Обновить пиров]
Размер:  8,62 GB   |    Зарегистрирован:  2 года 3 месяца   |    .torrent скачан:  23 раза
Раздают:  17  [  0 KB/s  ]   Качают:  6  [  0 KB/s  ]   Подробная статистика пиров
 
   
 
 
Автор Сообщение

4udaki ®

Оффлайн

Медали


Пол: Мужской

Стаж: 7 лет 2 месяца

Наличие запрета:

Сообщений: 13820

Откуда: korsars.pro

Отдача: 2 Mb/s

Загрузка: 20 Mb/s

Нажми


Скачать Adguard бесплатно

Создавать темы 21-Окт-2019 05:00

[Цитировать]

Оригинальное название: Tate no Yuusha no Nariagari
Русское название: Восхождение героя щита
Производство: Япония
Жанр: Сэйнэн, Драма, Комедия, Приключения, Романтика, Фэнтези, Экшен, Исэкай
Продолжительность: 1 серия (00:47:21) 02-25 серия x~00:25:00 эпизод
Выпуск: 2019
Режиссер: Такао Або
В ролях: Каито Исикава, Соити Абэ, Тосинари Фукамати, Мотоюки Кавахара, Вакана Ковака, Эрико Мацуи, Ёсицугу Мацуока, Ацуёси Миядзаки, Ютака Накано, Кэйити Огата
Студия: Kinema Citrus
Первоисточник: Ранобэ (лайт-новелла)
Краткое содержание:
Наофуми Иватани вместе с тремя другими людьми был призван в параллельный мир, чтобы стать его Героем. При переносе в другой мир каждый из них получил специальную экипировку, которая соответствует типу Героя. Наш же протагонист получил в руки легендарный щит и решил отправиться в путешествие по этому сказочному миру.
Но уже в самом начале его пути возникли проблемы. Наофуми не самый харизматичный парень, к тому же он совсем не был готов к Геройским делам, поэтому его прозвали слабейшим из Героев. Другие герои оставили его одного. В результате Иватани ограбили и обвинили в изнасиловании. Последней каплей стало то, что его остерегались все, начиная от короля и заканчивая крестьянами.
Сильные мира сего стали его врагами, а сам неудачливый Герой потерял веру в людей, но исполнился гневом и желанием отомстить.

Перевод #1: Профессиональный многоголосый Студия Кансай в 2019 году
Перевод #2 : Русские субтитры + Оригинал
Качество: BDRip | Формат: .AVI| Кодек: XviD
Видео: XviD, 720x400 (16:9), 23.976 fps, 1658 Кбит/сек (0.240 bit/pixel)
Аудио #1: AC-3, 48,0 КГц, 2 ch, 192 Кбит/сек, CBR | | Озвучка от Кансай
Аудио #2: AC-3, 48,0 КГц, 2 ch, 192 Кбит/сек, CBR | | Орининал
Субтитры (Русские): ass, Внешние | полный перевод (Crunchyroll)

MediaInfo

Первая Серия
Общее
Полное имя : D:ОнимеВосхождение.Героя.Щита.2019.S01.Kansai.BDRip.DeadmauvladVoskhozhdenie.Geroya.Shchita.2019.RUS.Jap.BDRip.Deadmauvlad.S01x01.avi
Формат : AVI
Формат/Информация : Audio Video Interleave
Размер файла : 697 Мбайт
Продолжительность : 47 м. 21 с.
Общий поток : 2057 Кбит/сек
Название фильма : Voskhozhdenie.Geroya.Shchita.2019.RUS.Jap.BDRip.Deadmauvlad.S01x01
Режиссёр : Encoder by Deadmauvlad
Жанр : Фэнтези , Экшен , Исэкай
Программа кодирования : VirtualDubMod 1.5.10.3 | www.virtualdub-fr.org || (build 2550/release)
Формат оригинала/Имя : Anime
Авторское право : Encoder by Deadmauvlad
Примечание : Encoder by Deadmauvlad
Видео
Идентификатор : 0
Формат : MPEG-4 Visual
Профиль формата : Advanced Simple@L5
Настройки формата : BVOP1 / Custom Matrix
Параметр BVOP формата : 1
Параметр QPel формата : Нет
Параметр GMC формата : Без точки перехода
Параметр матрицы формата : Выборочная
Идентификатор кодека : XVID
Идентификатор кодека/Подсказка : XviD
Продолжительность : 47 м. 21 с.
Битрейт : 1658 Кбит/сек
Ширина : 720 пикселей
Высота : 400 пикселей
Соотношение сторон : 16:9
Частота кадров : 23,976 (24000/1001) кадра/сек
Цветовое пространство : YUV
Субдискретизация насыщенности : 4:2:0
Битовая глубина : 8 бит
Тип развёртки : Прогрессивная
Метод сжатия : С потерями
Бит/(Пиксели*Кадры) : 0.240
Размер потока : 562 Мбайт (81%)
Библиотека кодирования : XviD 73
Аудио #1
Идентификатор : 1
Формат : AC-3
Формат/Информация : Audio Coding 3
Коммерческое название : Dolby Digital
Идентификатор кодека : 2000
Продолжительность : 47 м. 21 с.
Вид битрейта : Постоянный
Битрейт : 192 Кбит/сек
Каналы : 2 канала
Channel layout : L R
Частота : 48,0 КГц
Частота кадров : 31,250 кадров/сек (1536 SPF)
Битовая глубина : 16 бит
Метод сжатия : С потерями
Размер потока : 65,0 Мбайт (9%)
Выравнивание : Разделение по промежуткам
Продолжительность промежутка : 42 мс. (1,00 видеокадр)
Время предзагрузки промежутка : 500 мс.
Аудио #2
Идентификатор : 2
Формат : AC-3
Формат/Информация : Audio Coding 3
Коммерческое название : Dolby Digital
Идентификатор кодека : 2000
Продолжительность : 47 м. 21 с.
Вид битрейта : Постоянный
Битрейт : 192 Кбит/сек
Каналы : 2 канала
Channel layout : L R
Частота : 48,0 КГц
Частота кадров : 31,250 кадров/сек (1536 SPF)
Битовая глубина : 16 бит
Метод сжатия : С потерями
Размер потока : 65,0 Мбайт (9%)
Выравнивание : Разделение по промежуткам
Продолжительность промежутка : 42 мс. (1,00 видеокадр)
Время предзагрузки промежутка : 500 мс.
Вторая Серия по 25 серию
Общее
Полное имя : D:ОнимеВосхождение.Героя.Щита.2019.S01.Kansai.BDRip.DeadmauvladVoskhozhdenie.Geroya.Shchita.2019.RUS.Jap.BDRip.Deadmauvlad.S01x02.avi
Формат : AVI
Формат/Информация : Audio Video Interleave
Размер файла : 339 Мбайт
Продолжительность : 23 м. 40 с.
Общий поток : 2000 Кбит/сек
Название фильма : Voskhozhdenie.Geroya.Shchita.2019.RUS.Jap.BDRip.Deadmauvlad.S01x02
Режиссёр : Encoder by Deadmauvlad
Жанр : Фэнтези , Экшен , Исэкай
Программа кодирования : VirtualDubMod 1.5.10.3 | www.virtualdub-fr.org || (build 2550/release)
Формат оригинала/Имя : Anime
Авторское право : Encoder by Deadmauvlad
Примечание : Encoder by Deadmauvlad
Видео
Идентификатор : 0
Формат : MPEG-4 Visual
Профиль формата : Advanced Simple@L5
Настройки формата : BVOP1 / Custom Matrix
Параметр BVOP формата : 1
Параметр QPel формата : Нет
Параметр GMC формата : Без точки перехода
Параметр матрицы формата : Выборочная
Идентификатор кодека : XVID
Идентификатор кодека/Подсказка : XviD
Продолжительность : 23 м. 40 с.
Битрейт : 1602 Кбит/сек
Ширина : 720 пикселей
Высота : 400 пикселей
Соотношение сторон : 16:9
Частота кадров : 23,976 (24000/1001) кадра/сек
Цветовое пространство : YUV
Субдискретизация насыщенности : 4:2:0
Битовая глубина : 8 бит
Тип развёртки : Прогрессивная
Метод сжатия : С потерями
Бит/(Пиксели*Кадры) : 0.232
Размер потока : 271 Мбайт (80%)
Библиотека кодирования : XviD 73
Аудио #1
Идентификатор : 1
Формат : AC-3
Формат/Информация : Audio Coding 3
Коммерческое название : Dolby Digital
Идентификатор кодека : 2000
Продолжительность : 23 м. 40 с.
Вид битрейта : Постоянный
Битрейт : 192 Кбит/сек
Каналы : 2 канала
Channel layout : L R
Частота : 48,0 КГц
Частота кадров : 31,250 кадров/сек (1536 SPF)
Битовая глубина : 16 бит
Метод сжатия : С потерями
Размер потока : 32,5 Мбайт (10%)
Выравнивание : Разделение по промежуткам
Продолжительность промежутка : 42 мс. (1,00 видеокадр)
Время предзагрузки промежутка : 500 мс.
Аудио #2
Идентификатор : 2
Формат : AC-3
Формат/Информация : Audio Coding 3
Коммерческое название : Dolby Digital
Идентификатор кодека : 2000
Продолжительность : 23 м. 40 с.
Вид битрейта : Постоянный
Битрейт : 192 Кбит/сек
Каналы : 2 канала
Channel layout : L R
Частота : 48,0 КГц
Частота кадров : 31,250 кадров/сек (1536 SPF)
Битовая глубина : 16 бит
Метод сжатия : С потерями
Размер потока : 32,5 Мбайт (10%)
Выравнивание : Разделение по промежуткам
Продолжительность промежутка : 42 мс. (1,00 видеокадр)
Время предзагрузки промежутка : 500 мс.

Список эпизодов

01. Герой Щита
02. Рабыня
03. Бедственная Волна
04. Колыбельная на заре
05. Фило
06. Новый друг
07. Святой Небесной птицы
08. Щит проклятий
09. Мелти
10. Растерянность
11. И вновь… Бедствие.
12. Черноволосая чужеземка
13. Дьявол Щита
14. Незабываемое
15. Рафталия
16. Королева филориалов
17. Веретено обещания
18. Цепи заговора
19. Четыре героя
20. Битва Добра и Зла
21. Триумфальное возвращение Наофуми
22. Собрание Героев
23. Архипелаг Каль Мира
24. Защитники иного мира
25. Восхождение Героя Щита

Скриншоты

Благодарности

ЦитатаКто-то писал:1. За озвучку Кансай спасибо ReAlety
2. Исходник [BDMV] Tate no Yuusha no Nariagari (The Rising of the Shield Hero) [Vol.1~4Fin][JP] thx Prime
Релиз Без Рекламы
[korsars.pro].t23259.torrent 
Торрент: Зарегистрирован [ 2019-10-21 05:00 ] · 80A2B74C0B04F35D4CB70B7EB16BBD8B19235C9A

Скачать .torrent

Размер .torrent файла 17 KB

Статус: проверено
.torrent скачан: 23 раз
Размер: 8,62 GB
Правила
Похожие темы

Вы не зарегистрированы на нашем сайте. Вам доступна для скачивания только часть контента. Чтобы увидеть весь контент сайта, пожалуйста, зарегистрироруйтесь.

Дешевый и быстрый Сидбокс

Ключи и пин-коды

Игры, Кредитные карты, IP-телефония, Интернет провайдеры, Мобильная связь, Спутниковое ТВ

Электронные книги

Бизнес и экономика, Дом, быт, семья, досуг, Санкт-Петербург, Компьютеры и интернет, Наука и образование, Техническая литература, Юридическая литература

Цифровые товары

iTunes & App Store, Базы данных, Дизайн, Доступ к ресурсам, Kарты продления, ключи, Фотографии, Шаблоны для сайтов

Программное обеспечение

Безопасность, Игры, PC, Интернет, Мобильная связь, Программирование, Продвижение сайтов (SEO), Утилиты
У Вас отключен VIP статус, поэтому Вам показывается реклама на сайте. Вы можете поддержать наш ресурс и приобрести VIP статус, тем самым отключив показ рекламы на сайте, а ещё VIP пользователи получают возможность

смотреть аниме онлайн в HD качестве

(не распространяется на раздел Flarrow Films), а так же получить 5 инвайтов, которыми можно поделиться с друзьями или знакомыми.
Дешевый и быстрый Сидбокс

Ключи и пин-коды

Игры, Кредитные карты, IP-телефония, Интернет провайдеры, Мобильная связь, Спутниковое ТВ

Электронные книги

Бизнес и экономика, Дом, быт, семья, досуг, Санкт-Петербург, Компьютеры и интернет, Наука и образование, Техническая литература, Юридическая литература

Цифровые товары

iTunes & App Store, Базы данных, Дизайн, Доступ к ресурсам, Kарты продления, ключи, Фотографии, Шаблоны для сайтов

Программное обеспечение

Безопасность, Игры, PC, Интернет, Мобильная связь, Программирование, Продвижение сайтов (SEO), Утилиты
[Профиль] [ЛС]
Показать сообщения:    
Ответить на тему

Текущее время: 22-Янв 22:26

Часовой пояс: UTC + 4



Вы не можете начинать темы
Вы не можете отвечать на сообщения
Вы не можете редактировать свои сообщения
Вы не можете удалять свои сообщения
Вы не можете голосовать в опросах
Вы не можете прикреплять файлы к сообщениям
Вы можете скачивать файлы
Анализ сайта korsars.pro Яндекс.Метрика