Детектив Конан: Призрак Бэйкер-стрит / Detective Conan Movie: The Phantom of Baker Street / Meitantei Conan: Bekâ Sutorîto no bôrei (2002) BDRip | Persona99

Ответить на тему
Статистика раздачи [Обновить пиров]
Размер:  1,43 GB   |    Зарегистрирован:  2 года   |    .torrent скачан:  10 раз
Раздают:  1  [  0 KB/s  ]   Качают:  2  [  0 KB/s  ]   Подробная статистика пиров
 
   
 
 
 
Автор Сообщение

4udaki ®

Оффлайн

Медали


Пол: Мужской

Стаж: 6 лет 11 месяцев

Наличие запрета:

Сообщений: 11587

Откуда: korsars.pro

Отдача: 2 Mb/s

Загрузка: 20 Mb/s

Нажми


Скачать Adguard бесплатно

Создавать темы 20-Окт-2019 09:00

[Цитировать]

Детектив Конан (фильм шестой): Призрак с Бейкер-Стрит
Информация о фильме
Название: Детектив Конан (фильм 6)
Оригинальное название: Detective Conan Movie: The Phantom of Baker Street
Год выхода: 2002
Жанр: приключения, детектив
Режиссер: Кодама Кэндзи
В ролях: Укажите актеров, через запятую
О фильме:
Детектив-старшеклассник Кудо Шиничи благодаря своему интеллекту раскрыл множество дел. Однажды в парке аттракционов он замечает подозрительных людей в черном и решает проследить за ними. Наблюдая за сделкой, юный детектив не заметил, как сзади подкрался еще один из людей в черном, который оглушил Кудо и дал ему принять странный наркотик, из-за которого тело Шиничи уменьшилось. Решив скрыть свою личность, он пытается раздобыть информацию по этим людям в черном и вернуть себе прежний облик, по пути распутывая разнообразные дела.
Сюжет шестого фильма повествует о том как юные детективы были приглашены протестировать новую игру. По поводу ее выхода идет вечеринка, на которую и попадают наши герои вместе с Мори, Ран и Соноко. По этому же случаю из Америки приезжает отец Кудо Шиничи вместе с профессором Агаса. В здании, где проходит демонстрация игры совершается убийство. Чтобы выяснить личность преступника, Конан решает сыграть в эту игру. На кону - жизни сорока девяти остальных игроков и самого Конана. Сможет ли молодой детектив узнать личность убийцы, прежде чем погибнет сам?
Доп. информация:
Релиз GSGroup


Страна: Япония
Студия: TMS
Продолжительность: 01:47:00
Озвучка: Любительская одноголосая - Persona99
Файл
Кодек: XviD
Качество: BDRip
Видео: 720x400, 1512 Kbps, 23.976 fps, 8 bits
Звук:
1. AC-3, 48.0 KHz, 192 Kbps, 2 channels Язык Русский (в составе контейнера)
2. AC-3, 48.0 KHz, 192 Kbps, 2 channels Язык Японский
Субтитры: ass, srt, внешние Язык субтитров русский ; Перевод: TLTAniGroup
Семпл

Скриншоты

Подробные тех. данные

General
Complete name : Detective Conan Movie 06 (2002)Detective Conan Movie 06 - The Phantom of Baker Street [Persona99](BD XviD 720x400 AC3 ).rus.jpn.avi
Format : AVI
Format/Info : Audio Video Interleave
File size : 1.43 GiB
Duration : 1h 47mn
Overall bit rate : 1 910 Kbps
Writing application : VirtualDubMod 1.5.10.2 (build 2540/release)
Writing library : VirtualDubMod build 2540/release
Video
ID : 0
Format : MPEG-4 Visual
Format profile : Advanced Simple@L5
Format settings, BVOP : 2
Format settings, QPel : No
Format settings, GMC : No warppoints
Format settings, Matrix : Default (H.263)
Codec ID : XVID
Codec ID/Hint : XviD
Duration : 1h 47mn
Bit rate : 1 512 Kbps
Width : 720 pixels
Height : 400 pixels
Display aspect ratio : 16:9
Frame rate : 23.976 fps
Color space : YUV
Chroma subsampling : 4:2:0
Bit depth : 8 bits
Scan type : Progressive
Compression mode : Lossy
Bits/(Pixel*Frame) : 0.219
Stream size : 1.13 GiB (79%)
Writing library : XviD 1.2.1 (UTC 2008-12-04)
Audio #1
ID : 1
Format : AC-3
Format/Info : Audio Coding 3
Mode extension : CM (complete main)
Format settings, Endianness : Big
Codec ID : 2000
Duration : 1h 47mn
Bit rate mode : Constant
Bit rate : 192 Kbps
Channel(s) : 2 channels
Channel positions : Front: L R
Sampling rate : 48.0 KHz
Compression mode : Lossy
Stream size : 147 MiB (10%)
Alignment : Split accross interleaves
Interleave, duration : 42 ms (1.00 video frame)
Interleave, preload duratio : 500 ms
Audio #2
ID : 2
Format : AC-3
Format/Info : Audio Coding 3
Mode extension : CM (complete main)
Format settings, Endianness : Big
Codec ID : 2000
Duration : 1h 47mn
Bit rate mode : Constant
Bit rate : 192 Kbps
Channel(s) : 2 channels
Channel positions : Front: L R
Sampling rate : 48.0 KHz
Compression mode : Lossy
Stream size : 147 MiB (10%)
Alignment : Split accross interleaves
Interleave, duration : 42 ms (1.00 video frame)
Interleave, preload duratio : 500 ms
[korsars.pro].t23235.torrent 
Торрент: Зарегистрирован [ 2019-10-20 09:00 ] · 8746E72F6D378421A547DD0EBFA1EF8AACF2261B

Скачать .torrent

Размер .torrent файла 16 KB

Статус: проверено
.torrent скачан: 10 раз
Размер: 1,43 GB
Правила
Похожие темы

Вы не зарегистрированы на нашем сайте. Вам доступна для скачивания только часть контента. Чтобы увидеть весь контент сайта, пожалуйста, зарегистрироруйтесь.

Дешевый и быстрый Сидбокс

Ключи и пин-коды

Игры, Кредитные карты, IP-телефония, Интернет провайдеры, Мобильная связь, Спутниковое ТВ

Электронные книги

Бизнес и экономика, Дом, быт, семья, досуг, Санкт-Петербург, Компьютеры и интернет, Наука и образование, Техническая литература, Юридическая литература

Цифровые товары

iTunes & App Store, Базы данных, Дизайн, Доступ к ресурсам, Kарты продления, ключи, Фотографии, Шаблоны для сайтов

Программное обеспечение

Безопасность, Игры, PC, Интернет, Мобильная связь, Программирование, Продвижение сайтов (SEO), Утилиты
У Вас отключен VIP статус, поэтому Вам показывается реклама на сайте. Вы можете поддержать наш ресурс и приобрести VIP статус, тем самым отключив показ рекламы на сайте, а ещё VIP пользователи получают возможность

смотреть аниме онлайн в HD качестве

(не распространяется на раздел Flarrow Films), а так же получить 5 инвайтов, которыми можно поделиться с друзьями или знакомыми.
Дешевый и быстрый Сидбокс

Ключи и пин-коды

Игры, Кредитные карты, IP-телефония, Интернет провайдеры, Мобильная связь, Спутниковое ТВ

Электронные книги

Бизнес и экономика, Дом, быт, семья, досуг, Санкт-Петербург, Компьютеры и интернет, Наука и образование, Техническая литература, Юридическая литература

Цифровые товары

iTunes & App Store, Базы данных, Дизайн, Доступ к ресурсам, Kарты продления, ключи, Фотографии, Шаблоны для сайтов

Программное обеспечение

Безопасность, Игры, PC, Интернет, Мобильная связь, Программирование, Продвижение сайтов (SEO), Утилиты
[Профиль] [ЛС]

Создавать темы 24-Окт-2019 17:36 (спустя 4 дня)

Топик был перенесен из форума Аниме в форум Фильмы (полнометражные аниме-фильмы)
Причина переноса: Правильный форум
4udaki
 
Показать сообщения:    
Ответить на тему

Текущее время: 28-Окт 03:28

Часовой пояс: UTC + 4



Вы не можете начинать темы
Вы не можете отвечать на сообщения
Вы не можете редактировать свои сообщения
Вы не можете удалять свои сообщения
Вы не можете голосовать в опросах
Вы не можете прикреплять файлы к сообщениям
Вы можете скачивать файлы
Анализ сайта korsars.pro Яндекс.Метрика