Эй цыпочка / Mayo Chiki! [S01] (2011) BDRip | L2 | Anilibria

Ответить на тему
Статистика раздачи [Обновить пиров]
Размер:  4,32 GB   |    Зарегистрирован:  2 года   |    .torrent скачан:  8 раз
Раздают:  2  [  0 KB/s  ]   Качают:  2  [  0 KB/s  ]   Подробная статистика пиров
 
   
 
 
 
Автор Сообщение

4udaki ®

Оффлайн

Медали


Пол: Мужской

Стаж: 6 лет 11 месяцев

Наличие запрета:

Сообщений: 11563

Откуда: korsars.pro

Отдача: 2 Mb/s

Загрузка: 20 Mb/s

Нажми


Скачать Adguard бесплатно

Создавать темы 20-Окт-2019 01:00

[Цитировать]

Информация о фильме
Название: Эй цыпочка
Оригинальное название: Mayo Chiki!
Год выхода: 2011
Жанр: Этти, Комедия, Гарем, Романтика
Режиссер: Кавагути Кэйитиро
В ролях: Юка Игути, Сатоси Хино, Эри Китамура, Caitlynn French, Карли Мосье, Блейк Шепард, Genevieve Simmons, Джульет Симмонс, Кана Ханадзава, Марианн Брэй-О фильме:
Когда страдаешь от острой гинофобии, даже миленькая девчушка может стать проклятием. И Кинджиро Сакамачи, которого младшая сестра давно использует как грушу для своих приёмов, вам это подтвердит. Достаточно малейшего прикосновения, чтобы из его носа полилась кровь. Поэтому школа всегда была для него настоящим кошмаром. И ситуация стала только хуже, когда Канадэ Сузуцуки, странная дочка директора, узнала о «женской проблеме» Кинджиро и о том, что из его фамилии-имени легко получить обидную кличку «цыплёнок» (ром. Chi + Kin — англ. Chicken).
Но кто бы о том задумался, не раскрой Кинджиро секрет дворецкого Канадэ, точнее, дворецкОЙ? Ведь оказалось, что безупречный слуга Субару Коноэ, в которого влюблена половина школы, на самом деле — девушка! И, похоже, её ждёт увольнение, если кто-нибудь из учеников поймёт это. Но ведь свидетель только один, и договориться с ним не составит труда для изобретательной Канадэ. А уж ей есть что предложить взамен: страдающему гинофобией Кинджиро — полное излечение. Вот только какими методами она воспользуется?-
Страна: Япония
Студия: Feel
Продолжительность: 13x ~00:25:00
Перевод: Любительский Двухголосый закадровый (Anilibria)
Дабберы: Lupin, Say-Файл
Качество: BDRip Исходник BDRemux 1080p by user-office
Формат: AVI
Видео: XviD, 720x400 (16:9), 23.976 fps, 1606 Кбит/сек (0.233 bit/pixel)
Аудио #1: AC-3, 48,0 КГц, 2 ch, 192 Кбит/сек, CBR | | Озвучка от Anilibria
Аудио #2: AC-3, 48,0 КГц, 2 ch, 192 Кбит/сек, CBR | | Орининал
Русские субтитры: Есть (от Advantage) *ASS формат (внешними файлами)

Список эпизодов

01. Конец света
02. Я влюбился!
03. Конечно же, в кровати!
04. Не смотри на меня так!
05. Встречайся со мной!
06. Начнём войну!
07. Давай убежим!
08. Впервые!
09. В путь-дорогу!
10. Приятного аппетита!
11. Ню!
12. Запутавшийся дворецкий и я, цыплёнок
13. Сделай мне массаж!
-

MediaInfo

Общее
Полное имя : D:ОнимеЭй.Цыпочка.2011.S01.Anilibria.BDRip.DeadmauvladHey.Cypo4ka.2011.S01.Anilibria.BDRip.Deadmauvlad.Ep.01.avi
Формат : AVI
Формат/Информация : Audio Video Interleave
Размер файла : 347 Мбайт
Продолжительность : 24 м. 10 с.
Общий поток : 2004 Кбит/сек
Название фильма : Hey.Cypo4ka.2011.S01.Anilibria.BDRip.Deadmauvlad.Ep.01
Режиссёр : Encoder by Deadmauvlad
Жанр : Этти , Комедия, Школа
Программа кодирования : VirtualDubMod 1.5.10.3 | www.virtualdub-fr.org || (build 2550/release)
Формат оригинала/Имя : Anime
Авторское право : Encoder by Deadmauvlad
Примечание : Encoder by Deadmauvlad
Видео
Идентификатор : 0
Формат : MPEG-4 Visual
Профиль формата : Advanced Simple@L5
Настройки формата : BVOP1 / Custom Matrix
Параметр BVOP формата : 1
Параметр QPel формата : Нет
Параметр GMC формата : Без точки перехода
Параметр матрицы формата : Выборочная
Идентификатор кодека : XVID
Идентификатор кодека/Подсказка : XviD
Продолжительность : 24 м. 10 с.
Битрейт : 1606 Кбит/сек
Ширина : 720 пикселей
Высота : 400 пикселей
Соотношение сторон : 16:9
Частота кадров : 23,976 (24000/1001) кадра/сек
Цветовое пространство : YUV
Субдискретизация насыщенности : 4:2:0
Битовая глубина : 8 бит
Тип развёртки : Прогрессивная
Метод сжатия : С потерями
Бит/(Пиксели*Кадры) : 0.233
Размер потока : 278 Мбайт (80%)
Библиотека кодирования : XviD 73
Аудио #1
Идентификатор : 1
Формат : AC-3
Формат/Информация : Audio Coding 3
Коммерческое название : Dolby Digital
Идентификатор кодека : 2000
Продолжительность : 24 м. 8 с.
Вид битрейта : Постоянный
Битрейт : 192 Кбит/сек
Каналы : 2 канала
Channel layout : L R
Частота : 48,0 КГц
Частота кадров : 31,250 кадров/сек (1536 SPF)
Битовая глубина : 16 бит
Метод сжатия : С потерями
Размер потока : 33,2 Мбайт (10%)
Выравнивание : Разделение по промежуткам
Продолжительность промежутка : 42 мс. (1,00 видеокадр)
Время предзагрузки промежутка : 500 мс.
Аудио #2
Идентификатор : 2
Формат : AC-3
Формат/Информация : Audio Coding 3
Коммерческое название : Dolby Digital
Идентификатор кодека : 2000
Продолжительность : 24 м. 10 с.
Вид битрейта : Постоянный
Битрейт : 192 Кбит/сек
Каналы : 2 канала
Channel layout : L R
Частота : 48,0 КГц
Частота кадров : 31,250 кадров/сек (1536 SPF)
Битовая глубина : 16 бит
Метод сжатия : С потерями
Размер потока : 33,2 Мбайт (10%)
Выравнивание : Разделение по промежуткам
Продолжительность промежутка : 42 мс. (1,00 видеокадр)
Время предзагрузки промежутка : 500 мс.
-

Скриншоты

[korsars.pro].t23222.torrent 
Торрент: Зарегистрирован [ 2019-10-20 01:00 ] · 4FBC410D0C57CC3942494045AE9FC2550427A205

Скачать .torrent

Размер .torrent файла 9 KB

Статус: проверено
.torrent скачан: 8 раз
Размер: 4,32 GB
Правила
Похожие темы

Вы не зарегистрированы на нашем сайте. Вам доступна для скачивания только часть контента. Чтобы увидеть весь контент сайта, пожалуйста, зарегистрироруйтесь.

Дешевый и быстрый Сидбокс

Ключи и пин-коды

Игры, Кредитные карты, IP-телефония, Интернет провайдеры, Мобильная связь, Спутниковое ТВ

Электронные книги

Бизнес и экономика, Дом, быт, семья, досуг, Санкт-Петербург, Компьютеры и интернет, Наука и образование, Техническая литература, Юридическая литература

Цифровые товары

iTunes & App Store, Базы данных, Дизайн, Доступ к ресурсам, Kарты продления, ключи, Фотографии, Шаблоны для сайтов

Программное обеспечение

Безопасность, Игры, PC, Интернет, Мобильная связь, Программирование, Продвижение сайтов (SEO), Утилиты
У Вас отключен VIP статус, поэтому Вам показывается реклама на сайте. Вы можете поддержать наш ресурс и приобрести VIP статус, тем самым отключив показ рекламы на сайте, а ещё VIP пользователи получают возможность

смотреть аниме онлайн в HD качестве

(не распространяется на раздел Flarrow Films), а так же получить 5 инвайтов, которыми можно поделиться с друзьями или знакомыми.
Дешевый и быстрый Сидбокс

Ключи и пин-коды

Игры, Кредитные карты, IP-телефония, Интернет провайдеры, Мобильная связь, Спутниковое ТВ

Электронные книги

Бизнес и экономика, Дом, быт, семья, досуг, Санкт-Петербург, Компьютеры и интернет, Наука и образование, Техническая литература, Юридическая литература

Цифровые товары

iTunes & App Store, Базы данных, Дизайн, Доступ к ресурсам, Kарты продления, ключи, Фотографии, Шаблоны для сайтов

Программное обеспечение

Безопасность, Игры, PC, Интернет, Мобильная связь, Программирование, Продвижение сайтов (SEO), Утилиты
[Профиль] [ЛС]
Показать сообщения:    
Ответить на тему

Текущее время: 20-Окт 10:02

Часовой пояс: UTC + 4



Вы не можете начинать темы
Вы не можете отвечать на сообщения
Вы не можете редактировать свои сообщения
Вы не можете удалять свои сообщения
Вы не можете голосовать в опросах
Вы не можете прикреплять файлы к сообщениям
Вы можете скачивать файлы
Анализ сайта korsars.pro Яндекс.Метрика