Бюро паранормальных расследований Мухё и Родзи / Muhyo to Roji no Mahouritsu Soudan Jimusho [S01] (2018) WEBRip | L

Ответить на тему
Статистика раздачи [Обновить пиров]
Размер:  3,41 GB   |    Зарегистрирован:  2 года 1 месяц   |    .torrent скачан:  2 раза
Раздают:  2  [  0 KB/s  ]   Качают:  2  [  0 KB/s  ]   Подробная статистика пиров
 
   
 
 
 
Автор Сообщение

4udaki ®

Оффлайн

Медали


Пол: Мужской

Стаж: 7 лет 1 месяц

Наличие запрета:

Сообщений: 12166

Откуда: korsars.pro

Отдача: 2 Mb/s

Загрузка: 20 Mb/s

Нажми


Скачать Adguard бесплатно

Создавать темы 19-Окт-2019 09:00

[Цитировать]

Информация о фильме
Название: Бюро паранормальных расследований Мухё и Родзи
Оригинальное название: Muhyo to Roji no Mahouritsu Soudan Jimusho
Год выхода: 2018
Жанр: комедия, детектив, мистика
Режиссер: Кондо Нобухиро
О фильме:
Вы, сами того не желая, стали жертвой какого-то духа и теперь страдаете от одержимости? Или Вы незапланированно столкнулись с призраком и не прочь от него избавиться, неважно упокоить ли его, отправить в загробный мир или полностью уничтожить на веки вечные? А, может, с Вами происходит ещё что-то сверхъестественное, чему ни Вы, ни Ваша семья, ни друзья не могут найти объяснение? Если Ваш ответ — «да», то Вам прямая дорога в «Паранормальное бюро расследований Мухё и Роджи» — специалистам по всему таинственному, магическому и неподвластному науке и логике. Нести возмездие злым духам и прочей нечисти, восстанавливая справедливость для невинных — их работа. И они в ней профессионалы.
Автор:GerasyaGerasya
Доп. информация:
Релиз GSGroup

Страна: Япония
Студия: Studio DEEN / Bridge
Продолжительность: 12 эп. по 00:24:00 мин
Перевод: Любительский одноголосый (Persona99)
Качество: WEBRip
Тип релиза: Без хардсаба
Формат видео: AVI
Видео: XviD, 720x400, 23.976 fps, 1302 Kbps, 8 bits
Звук:
1. AC-3, 48 KHz, 192 Kbps, 2 channels Язык Русский (в составе контейнера) ; Озвучка: Любительский одноголосый
2. AC-3, 48 KHz, 192 Kbps, 2 channels Язык Японский ; Озвучка 2: оригинал
Субтитры: внешние srt, ass ;
Семпл

Подробные тех. данные

General
Complete name :_EMuhyo to Rouji no Mahouritsu Soudan JimushoMuhyo to Rouji - 01 [Persona99.GSG].avi
Format : AVI
Format/Info : Audio Video Interleave
File size : 291 MiB
Duration : 23mn 55s
Overall bit rate : 1 700 Kbps
Writing application : VirtualDubMod 1.5.10.2 (build 2540/release)
Writing library : VirtualDubMod build 2540/release
Video
ID : 0
Format : MPEG-4 Visual
Format profile : Advanced Simple@L5
Format settings, BVOP : 2
Format settings, QPel : No
Format settings, GMC : No warppoints
Format settings, Matrix : Default (H.263)
Codec ID : XVID
Codec ID/Hint : XviD
Duration : 23mn 55s
Bit rate : 1 302 Kbps
Width : 720 pixels
Height : 400 pixels
Display aspect ratio : 16:9
Frame rate : 23.976 fps
Color space : YUV
Chroma subsampling : 4:2:0
Bit depth : 8 bits
Scan type : Progressive
Compression mode : Lossy
Bits/(Pixel*Frame) : 0.189
Stream size : 223 MiB (77%)
Writing library : XviD 67
Audio #1
ID : 1
Format : AC-3
Format/Info : Audio Coding 3
Mode extension : CM (complete main)
Format settings, Endianness : Big
Codec ID : 2000
Duration : 23mn 55s
Bit rate mode : Constant
Bit rate : 192 Kbps
Channel(s) : 2 channels
Channel positions : Front: L R
Sampling rate : 48.0 KHz
Compression mode : Lossy
Stream size : 32.8 MiB (11%)
Alignment : Split accross interleaves
Interleave, duration : 42 ms (1.00 video frame)
Interleave, preload duration : 500 ms
Audio #2
ID : 2
Format : AC-3
Format/Info : Audio Coding 3
Mode extension : CM (complete main)
Format settings, Endianness : Big
Codec ID : 2000
Duration : 23mn 55s
Bit rate mode : Constant
Bit rate : 192 Kbps
Channel(s) : 2 channels
Channel positions : Front: L R
Sampling rate : 48.0 KHz
Compression mode : Lossy
Stream size : 32.8 MiB (11%)
Alignment : Split accross interleaves
Interleave, duration : 42 ms (1.00 video frame)
Interleave, preload duration : 500 ms

Список эпизодов

01. Rie and Taeko
02. Kenji and Nana
03. Talent
04. Omen
05. Insanity
06. The Butterfly of the Night
07. Magic Prison
08. Becoming Someone Else
09. Sophie
10. Raspberries
11. The Gamble
12. Swallows in the Wind

Скриншоты

[korsars.pro].t23203.torrent 
Торрент: Зарегистрирован [ 2019-10-19 09:00 ] · 7DC92A05B2CC28228BB546EA4F53A2C28F3A07F2

Скачать .torrent

Размер .torrent файла 21 KB

Статус: проверено
.torrent скачан: 2 раз
Размер: 3,41 GB
Правила

Вы не зарегистрированы на нашем сайте. Вам доступна для скачивания только часть контента. Чтобы увидеть весь контент сайта, пожалуйста, зарегистрироруйтесь.

Дешевый и быстрый Сидбокс

Ключи и пин-коды

Игры, Кредитные карты, IP-телефония, Интернет провайдеры, Мобильная связь, Спутниковое ТВ

Электронные книги

Бизнес и экономика, Дом, быт, семья, досуг, Санкт-Петербург, Компьютеры и интернет, Наука и образование, Техническая литература, Юридическая литература

Цифровые товары

iTunes & App Store, Базы данных, Дизайн, Доступ к ресурсам, Kарты продления, ключи, Фотографии, Шаблоны для сайтов

Программное обеспечение

Безопасность, Игры, PC, Интернет, Мобильная связь, Программирование, Продвижение сайтов (SEO), Утилиты
У Вас отключен VIP статус, поэтому Вам показывается реклама на сайте. Вы можете поддержать наш ресурс и приобрести VIP статус, тем самым отключив показ рекламы на сайте, а ещё VIP пользователи получают возможность

смотреть аниме онлайн в HD качестве

(не распространяется на раздел Flarrow Films), а так же получить 5 инвайтов, которыми можно поделиться с друзьями или знакомыми.
Дешевый и быстрый Сидбокс

Ключи и пин-коды

Игры, Кредитные карты, IP-телефония, Интернет провайдеры, Мобильная связь, Спутниковое ТВ

Электронные книги

Бизнес и экономика, Дом, быт, семья, досуг, Санкт-Петербург, Компьютеры и интернет, Наука и образование, Техническая литература, Юридическая литература

Цифровые товары

iTunes & App Store, Базы данных, Дизайн, Доступ к ресурсам, Kарты продления, ключи, Фотографии, Шаблоны для сайтов

Программное обеспечение

Безопасность, Игры, PC, Интернет, Мобильная связь, Программирование, Продвижение сайтов (SEO), Утилиты
[Профиль] [ЛС]
Показать сообщения:    
Ответить на тему

Текущее время: 06-Дек 22:17

Часовой пояс: UTC + 4



Вы не можете начинать темы
Вы не можете отвечать на сообщения
Вы не можете редактировать свои сообщения
Вы не можете удалять свои сообщения
Вы не можете голосовать в опросах
Вы не можете прикреплять файлы к сообщениям
Вы можете скачивать файлы
Анализ сайта korsars.pro Яндекс.Метрика