Детектив Конан: Джолли Роджер / Detective Conan: Konpeki no Jolly Roger (2007) BDrip 1080 | L

Ответить на тему
Статистика раздачи [Обновить пиров]
Размер:  2,79 GB   |    Зарегистрирован:  2 года 1 месяц   |    .torrent скачан:  4 раза
Раздают:  5  [  0 KB/s  ]   Качают:  2  [  0 KB/s  ]   Подробная статистика пиров
 
   
 
 
Автор Сообщение

4udaki ®

Оффлайн

Медали


Пол: Мужской

Стаж: 7 лет 1 месяц

Наличие запрета:

Сообщений: 12171

Откуда: korsars.pro

Отдача: 2 Mb/s

Загрузка: 20 Mb/s

Нажми


Скачать Adguard бесплатно

Создавать темы 19-Окт-2019 05:00

[Цитировать]

Информация о фильме
Название: Детектив Конан 11: Джолли Роджер в глубине лазури
Оригинальное название: Meitantei Conan: Konpeki no Jolly Roger / Detective Conan: Jolly Roger in the Deep Azure
Год выхода: 2007
Жанр: приключения, детектив
Режиссер: Ямамото Ясуйтиро
О фильме:
Разгадав усилиями Конана головоломку из "Ежедневной газеты", Мори Когоро с Ран, Соноко и Молодыми Детективами отправляется отдыхать на тропический остров. Казалось бы их ждет солнце, пляж и безмятежный отдых от детективных дел, но судьба злодейка преподносит очередной сюрприз, очередную загадку бог весть из насколько далекого прошлого. Героям предстоит пройти множество испытаний, поймать преступников и пролить свет на тайну пиратского клада, чтобы в конце узнать, что за сокровище на самом деле было оставлено Анной Бонни для Мари Рид.
Доп. информация:
Релиз GSGroup


Страна: Япония
Студия: TMS
Продолжительность: 01:46:26
Перевод: Любительский одноголосый (Persona99)
Файл
Кодек: x264
Качество: BDRip 1080p CalChi
Видео: 1920x1080, 23.976 fps, ~2970 Kbps, 8 bits
Звук:
1. AC3 48 КГц; 256 Кбит/сек, 2 ch Язык Русский (в составе контейнера) ; Озвучка: Любительский одноголосый (Persona99)
2. AC3 48 КГц; 448 Кбит/сек, 6 ch, Язык Японский ; Озвучка 2: Оригинал
Субтитры: встроенные ass, srt Язык субтитров русский ; Перевод, тайминг: KIRayama-Sempl:

Подробные тех. данные

General
Unique ID : 221605052205625381248112398099054911293 (0xA6B794A15A06E124973DBAF31598DF3D)
Complete name : Detective Conan Movie 11 - Jolly Roger in the Deep Azure.2007.BDrip.x264.AC3.1080p [Persona99].rus.jpn.mkv
Format : Matroska
Format version : Version 2
File size : 2.79 GiB
Duration : 1h 46mn
Overall bit rate : 3 751 Kbps
Encoded date : UTC 2019-05-11 11:38:33
Writing application : mkvmerge v4.0.0 ('The Stars were mine') built on Jun 6 2010 16:18:42
Writing library : libebml v1.0.0 + libmatroska v1.0.0
Video
ID : 1
Format : AVC
Format/Info : Advanced Video Codec
Format profile : High@L4.1
Format settings, CABAC : Yes
Format settings, ReFrames : 4 frames
Codec ID : V_MPEG4/ISO/AVC
Duration : 1h 46mn
Bit rate : 2 972 Kbps
Width : 1 920 pixels
Height : 1 080 pixels
Display aspect ratio : 16:9
Frame rate mode : Constant
Frame rate : 23.976 fps
Color space : YUV
Chroma subsampling : 4:2:0
Bit depth : 8 bits
Scan type : Progressive
Bits/(Pixel*Frame) : 0.060
Stream size : 2.21 GiB (79%)
Writing library : x264 core 94 r1564 a927654
Encoding settings : cabac=1 / ref=3 / deblock=1:-2:-2 / analyse=0x3:0x113 / me=umh / subme=7 / psy=0 / mixed_ref=1 / me_range=32 / chroma_me=1 / trellis=2 / 8x8dct=1 / cqm=0 / deadzone=21,11 / fast_pskip=0 / chroma_qp_offset=0 / threads=6 / sliced_threads=0 / nr=0 / decimate=0 / interlaced=0 / constrained_intra=0 / bframes=4 / b_pyramid=2 / b_adapt=1 / b_bias=0 / direct=1 / wpredb=1 / wpredp=2 / keyint=250 / keyint_min=25 / scenecut=40 / intra_refresh=0 / rc_lookahead=40 / rc=crf / mbtree=1 / crf=20.0 / qcomp=0.70 / qpmin=10 / qpmax=51 / qpstep=4 / ip_ratio=1.40 / aq=1:1.00
Default : No
Forced : No
Audio #1
ID : 2
Format : AC-3
Format/Info : Audio Coding 3
Mode extension : CM (complete main)
Format settings, Endianness : Big
Codec ID : A_AC3
Duration : 1h 46mn
Bit rate mode : Constant
Bit rate : 256 Kbps
Channel(s) : 2 channels
Channel positions : Front: L R
Sampling rate : 48.0 KHz
Compression mode : Lossy
Stream size : 195 MiB (7%)
Title : Persona99 (2 ch)
Language : Russian
Default : Yes
Forced : No
Audio #2
ID : 3
Format : AC-3
Format/Info : Audio Coding 3
Mode extension : CM (complete main)
Format settings, Endianness : Big
Codec ID : A_AC3
Duration : 1h 46mn
Bit rate mode : Constant
Bit rate : 448 Kbps
Channel(s) : 6 channels
Channel positions : Front: L C R, Side: L R, LFE
Sampling rate : 48.0 KHz
Compression mode : Lossy
Stream size : 341 MiB (12%)
Title : 6 ch
Language : Japanese
Default : No
Forced : No
Text #1
ID : 4
Format : ASS
Codec ID : S_TEXT/ASS
Codec ID/Info : Advanced Sub Station Alpha
Compression mode : Lossless
Title : ass
Language : Russian
Default : No
Forced : No
Text #2
ID : 5
Format : UTF-8
Codec ID : S_TEXT/UTF8
Codec ID/Info : UTF-8 Plain Text
Title : srt
Language : Russian
Default : No
Forced : No

Скриншоты

[korsars.pro].t23199.torrent 
Торрент: Зарегистрирован [ 2019-10-19 05:00 ] · 55986E0B45927BA022952B3050C43D040D89140D

Скачать .torrent

Размер .torrent файла 16 KB

Статус: проверено
.torrent скачан: 4 раз
Размер: 2,79 GB
Правила
Похожие темы

Вы не зарегистрированы на нашем сайте. Вам доступна для скачивания только часть контента. Чтобы увидеть весь контент сайта, пожалуйста, зарегистрироруйтесь.

Дешевый и быстрый Сидбокс

Ключи и пин-коды

Игры, Кредитные карты, IP-телефония, Интернет провайдеры, Мобильная связь, Спутниковое ТВ

Электронные книги

Бизнес и экономика, Дом, быт, семья, досуг, Санкт-Петербург, Компьютеры и интернет, Наука и образование, Техническая литература, Юридическая литература

Цифровые товары

iTunes & App Store, Базы данных, Дизайн, Доступ к ресурсам, Kарты продления, ключи, Фотографии, Шаблоны для сайтов

Программное обеспечение

Безопасность, Игры, PC, Интернет, Мобильная связь, Программирование, Продвижение сайтов (SEO), Утилиты
У Вас отключен VIP статус, поэтому Вам показывается реклама на сайте. Вы можете поддержать наш ресурс и приобрести VIP статус, тем самым отключив показ рекламы на сайте, а ещё VIP пользователи получают возможность

смотреть аниме онлайн в HD качестве

(не распространяется на раздел Flarrow Films), а так же получить 5 инвайтов, которыми можно поделиться с друзьями или знакомыми.
Дешевый и быстрый Сидбокс

Ключи и пин-коды

Игры, Кредитные карты, IP-телефония, Интернет провайдеры, Мобильная связь, Спутниковое ТВ

Электронные книги

Бизнес и экономика, Дом, быт, семья, досуг, Санкт-Петербург, Компьютеры и интернет, Наука и образование, Техническая литература, Юридическая литература

Цифровые товары

iTunes & App Store, Базы данных, Дизайн, Доступ к ресурсам, Kарты продления, ключи, Фотографии, Шаблоны для сайтов

Программное обеспечение

Безопасность, Игры, PC, Интернет, Мобильная связь, Программирование, Продвижение сайтов (SEO), Утилиты
[Профиль] [ЛС]

Создавать темы 24-Окт-2019 17:36 (спустя 5 дней)

Топик был перенесен из форума Аниме в форум Фильмы (полнометражные аниме-фильмы)
Причина переноса: Правильный форум
4udaki
 
Показать сообщения:    
Ответить на тему

Текущее время: 09-Дек 17:47

Часовой пояс: UTC + 4



Вы не можете начинать темы
Вы не можете отвечать на сообщения
Вы не можете редактировать свои сообщения
Вы не можете удалять свои сообщения
Вы не можете голосовать в опросах
Вы не можете прикреплять файлы к сообщениям
Вы можете скачивать файлы
Анализ сайта korsars.pro Яндекс.Метрика