Мирай из будущего / Mirai no Mirai (Мамору Хосода) [2018, приключения, драма, BDRip | D | iTunes]

Ответить на тему
Статистика раздачи [Обновить пиров]
Размер:  1,73 GB   |    Зарегистрирован:  2 года 6 месяцев   |    .torrent скачан:  4 раза
Раздают:  60  [  0 KB/s  ]   Качают:  12  [  0 KB/s  ]   Подробная статистика пиров
 
   
 
 
Автор Сообщение

EStolniy23 ®

Оффлайн

Медали
VIPАктивный раздающий 1Активный раздающий 2Активный релизер 1000
Активный релизер 1500Активный релизер 2000Активный релизер 250Активный релизер 3000Активный релизер 500Активный релизер 5000Активный релизер Фильмов (1000)Активный релизер Фильмов (300)Активный релизер Фильмов (600)Активный Форумчанин 1Активный Форумчанин 2Активный Форумчанин 3Активный Форумчанин 4Друг трекераКарма 1000Карма 1500Карма 3000Карма 500МеценатНи дня без новостейОрденосец 1 степениОрденосец 2 степениОрденосец 3 степениПочетный орденосецПочетный репортерС Новым 2016 Годом!С Новым 2017 Годом!С Новым 2018 Годом!С Новым 2019 Годом!Супер Мега Контер КвейкТОП-10


Пол: Мужской

Стаж: 6 лет 2 месяца

Наличие запрета:

Сообщений: 11446

Откуда: KORSARS

Отдача: 2 Mb/s

Загрузка: 20 Mb/s

Нажми


Скачать Adguard бесплатно

Создавать темы 21-Апр-2019 13:27

[Цитировать]

Информация о фильме- Название : Мирай из будущего
Оригинальное название : Mirai no Mirai / Mirai of the Future / 未来のミライ
Год выхода : 2018
Жанр : Приключения, драма
Режиссер : Мамору Хосода-world-art | MyAnimeList | Офиц. сайт- -Описание : Четырёхлетний Кун наслаждается беззаботным детством, пока на свет не появляется его маленькая сестра Мирай. Так как младенец забирает всё внимание мамы и папы, мальчик очень ревнует родителей к сестрёнке и часто прячется на заднем дворе, где растёт волшебное семейное дерево. Внезапно Кун оказывается в фантастическом мире, где переплетаются настоящее, прошлое и будущее. Одного за другим он встречает родственников из разных времен: маму — маленькой девочкой, прадедушку — сильным юношей, а свою младшую сестру — подростком. Благодаря этим невероятным приключениям Кун открывает для себя новый мир.-Страна : Япония
Производство : Studio Chizu
Продолжительность : 01:37:58
Перевод: Профессиональный (дублированный) [iTunes]-Перевод:-Cубтитры:
Перевод: С дубляжа Мосфильм-Мастер
Набор субтитров: Странник 2.0
Редактирование: Эмпир-Озвучка:-- многоголосая, полное дублирование: Мосфильм-Мастер-За озвучку спасибо black7792- -Автор рипа : Странник 2.0-Файл-Качество: BDRip (Исходник: Blu-ray Disc)
Тип релиза: Без хардсаба
Формат видео: AVI
Наличие линковки: Нет-Видео: XviD, 720x384 (2.85:1), 1750 kbps, 23.976 fps, 8bit
Аудио: Русский, AC3 384 Кбит/с, 48.0 Hz, 6 ch (в составе контейнера) [iTunes]
Аудио 2: Японский, AC3, 384 Кбит/с, 48.0 Hz, 6 ch (в составе контейнера)
Субтитры (SRT): Русские, Английские [с BD] (внешними файлами)-

Скриншоты

--
-

MediaInfo

-General
Complete name : E:/Torrent_2/Mirai no Mirai (2018, XviD BDRip, RUS JAP+SUB)/[Strannik 2.0] Mirai no Mirai (2018, XviD BDRip, RUS JAP+SUB).avi
Format : AVI
Format/Info : Audio Video Interleave
File size : 1.73 GiB
Duration : 1h 37mn
Overall bit rate : 2 531 Kbps
Writing application : VirtualDubMod 1.5.10.3 (build 2550/release)
Writing library : VirtualDubMod build 2550/release
Video #0
ID : 0
Format : MPEG-4 Visual
Format profile : Advanced Simple@L5
Format settings, BVOP : 2
Format settings, QPel : No
Format settings, GMC : No warppoints
Format settings, Matrix : Custom
Codec ID : XVID
Codec ID/Hint : XviD
Duration : 1h 37mn
Bit rate : 1 750 Kbps
Width : 720 pixels
Height : 384 pixels
Display aspect ratio : 1.85:1
Frame rate : 23.976 fps
Color space : YUV
Chroma subsampling : 4:2:0
Bit depth : 8 bits
Scan type : Progressive
Compression mode : Lossy
Bits/(Pixel*Frame) : 0.264
Stream size : 1.20 GiB (69%)
Writing library : XviD 67
Audio #1
ID : 1
Format : AC-3
Format/Info : Audio Coding 3
Mode extension : CM (complete main)
Format settings, Endianness : Big
Codec ID : 2000
Duration : 1h 37mn
Bit rate mode : Constant
Bit rate : 384 Kbps
Channel(s) : 6 channels
Channel positions : Front: L C R, Side: L R, LFE
Sampling rate : 48.0 KHz
Bit depth : 16 bits
Compression mode : Lossy
Stream size : 269 MiB (15%)
Alignment : Split accross interleaves
Interleave, duration : 42 ms (1.00 video frame)
Interleave, preload duration : 500 ms
Audio #2
ID : 2
Format : AC-3
Format/Info : Audio Coding 3
Mode extension : CM (complete main)
Format settings, Endianness : Big
Codec ID : 2000
Duration : 1h 37mn
Bit rate mode : Constant
Bit rate : 384 Kbps
Channel(s) : 6 channels
Channel positions : Front: L C R, Side: L R, LFE
Sampling rate : 48.0 KHz
Bit depth : 16 bits
Compression mode : Lossy
Stream size : 269 MiB (15%)
Alignment : Split accross interleaves
Interleave, duration : 42 ms (1.00 video frame)
Interleave, preload duration : 500 ms-
-
[korsars.pro].t20685.torrent 
Торрент: Зарегистрирован [ 2019-04-21 13:27 ] · FF230A4D7D12E1141880EAD59876B88673123ABA

Скачать .torrent

Размер .torrent файла 19 KB

Статус: проверено
.torrent скачан: 4 раз
Размер: 1,73 GB
Правила
Похожие темы

Вы не зарегистрированы на нашем сайте. Вам доступна для скачивания только часть контента. Чтобы увидеть весь контент сайта, пожалуйста, зарегистрироруйтесь.

Дешевый и быстрый Сидбокс

Ключи и пин-коды

Игры, Кредитные карты, IP-телефония, Интернет провайдеры, Мобильная связь, Спутниковое ТВ

Электронные книги

Бизнес и экономика, Дом, быт, семья, досуг, Санкт-Петербург, Компьютеры и интернет, Наука и образование, Техническая литература, Юридическая литература

Цифровые товары

iTunes & App Store, Базы данных, Дизайн, Доступ к ресурсам, Kарты продления, ключи, Фотографии, Шаблоны для сайтов

Программное обеспечение

Безопасность, Игры, PC, Интернет, Мобильная связь, Программирование, Продвижение сайтов (SEO), Утилиты
У Вас отключен VIP статус, поэтому Вам показывается реклама на сайте. Вы можете поддержать наш ресурс и приобрести VIP статус, тем самым отключив показ рекламы на сайте, а ещё VIP пользователи получают возможность

смотреть аниме онлайн в HD качестве

(не распространяется на раздел Flarrow Films), а так же получить 5 инвайтов, которыми можно поделиться с друзьями или знакомыми.
Дешевый и быстрый Сидбокс

Ключи и пин-коды

Игры, Кредитные карты, IP-телефония, Интернет провайдеры, Мобильная связь, Спутниковое ТВ

Электронные книги

Бизнес и экономика, Дом, быт, семья, досуг, Санкт-Петербург, Компьютеры и интернет, Наука и образование, Техническая литература, Юридическая литература

Цифровые товары

iTunes & App Store, Базы данных, Дизайн, Доступ к ресурсам, Kарты продления, ключи, Фотографии, Шаблоны для сайтов

Программное обеспечение

Безопасность, Игры, PC, Интернет, Мобильная связь, Программирование, Продвижение сайтов (SEO), Утилиты
[Профиль] [ЛС]
Показать сообщения:    
Ответить на тему

Текущее время: 28-Окт 01:41

Часовой пояс: UTC + 4



Вы не можете начинать темы
Вы не можете отвечать на сообщения
Вы не можете редактировать свои сообщения
Вы не можете удалять свои сообщения
Вы не можете голосовать в опросах
Вы не можете прикреплять файлы к сообщениям
Вы можете скачивать файлы
Анализ сайта korsars.pro Яндекс.Метрика