Мирай из будущего / Mirai no Mirai (Мамору Хосода) [2018, приключения, драма, BDRip 720p | D | iTunes]

Ответить на тему
Статистика раздачи [Обновить пиров]
Размер:  3,85 GB   |    Зарегистрирован:  2 года 7 месяцев   |    .torrent скачан:  8 раз
Раздают:  67  [  0 KB/s  ]   Качают:  8  [  0 KB/s  ]   Подробная статистика пиров
 
   
 
 
Автор Сообщение

EStolniy23 ®

Оффлайн

Медали
VIPАктивный раздающий 1Активный раздающий 2Активный релизер 1000
Активный релизер 1500Активный релизер 2000Активный релизер 250Активный релизер 3000Активный релизер 500Активный релизер 5000Активный релизер Фильмов (1000)Активный релизер Фильмов (300)Активный релизер Фильмов (600)Активный Форумчанин 1Активный Форумчанин 2Активный Форумчанин 3Активный Форумчанин 4Друг трекераКарма 1000Карма 1500Карма 3000Карма 500МеценатНи дня без новостейОрденосец 1 степениОрденосец 2 степениОрденосец 3 степениПочетный орденосецПочетный репортерС Новым 2016 Годом!С Новым 2017 Годом!С Новым 2018 Годом!С Новым 2019 Годом!Супер Мега Контер КвейкТОП-10


Пол: Мужской

Стаж: 6 лет 4 месяца

Наличие запрета:

Сообщений: 11494

Откуда: KORSARS

Отдача: 2 Mb/s

Загрузка: 20 Mb/s

Нажми


Скачать Adguard бесплатно

Создавать темы 18-Апр-2019 12:06

[Цитировать]

Информация о фильме- Название: Мирай из будущего
Оригинальное название: Mirai no Mirai / Mirai of the Future / 未来のミライ
Год выхода: 2018
Жанр: Приключения, драма
Режиссер: Мамору Хосода-world-art | MyAnimeList | Офиц. сайт- -Описание: Четырёхлетний Кун наслаждается беззаботным детством, пока на свет не появляется его маленькая сестра Мирай. Так как младенец забирает всё внимание мамы и папы, мальчик очень ревнует родителей к сестрёнке и часто прячется на заднем дворе, где растёт волшебное семейное дерево. Внезапно Кун оказывается в фантастическом мире, где переплетаются настоящее, прошлое и будущее. Одного за другим он встречает родственников из разных времен: маму — маленькой девочкой, прадедушку — сильным юношей, а свою младшую сестру — подростком. Благодаря этим невероятным приключениям Кун открывает для себя новый мир.-Страна: Япония
Производство: Studio Chizu
Продолжительность: 01:37:58
Перевод: Профессиональный (дублированный) [iTunes]-Cубтитры:-Перевод: С дубляжа Мосфильм-Мастер
Набор субтитров: Странник 2.0
Редактирование: Эмпир-Русские субтитры: YakuSub Studio
Переводчик: SeshaRim
Редактура: Arashi-sama
Оформление, лирика: Nika_Elrik-Озвучка:-- многоголосая, полное дублирование: Мосфильм-Мастер-За озвучку спасибо black7792- -Автор рипа: Странник 2.0-Файл-Качество: BDRip (Исходник: Blu-ray Disc)
Тип релиза: Без хардсаба
Формат видео: MKV
Наличие линковки: Нет-Видео: AVC, 1280x690 (2.85:1), 4850 kbps, 23.976 fps, 8bit
Аудио 1: Русский, AC3 384 Кбит/с, 48.0 Hz, 6 ch (в составе контейнера) [iTunes]
Аудио 2: Японский, AC3, 384 Кбит/с, 48.0 Hz, 6 ch (в составе контейнера)
Субтитры 1(SRT): Русские - Мосфильм-Мастер (в составе контейнера)
Субтитры 2(ASS): Русские - YakuSub Studio (в составе контейнера)
Субтитры 3(SRT): Английские [с BD] (в составе контейнера)-

Скриншоты

--
-

MediaInfo

-General
Unique ID : 211615046792342521217007391136578938745 (0x9F339355EF97803B9732D95E63AA2779)
Complete name : E:/Torrent_2/[Strannik 2.0] Mirai no Mirai (2018, AVC BDRip-720p, RUS JAP+SUB).mkv
Format : Matroska
Format version : Version 2
File size : 3.85 GiB
Duration : 1h 37mn
Overall bit rate : 5 619 Kbps
Encoded date : UTC 2019-04-16 13:07:39
Writing application : mkvmerge v5.5.0 ('Healer') built on Apr 6 2012 21:43:24
Writing library : libebml v1.2.3 + libmatroska v1.3.0
DURATION : 01:37:58.873000000
NUMBER_OF_FRAMES : 140952
NUMBER_OF_BYTES : 3563044800
_STATISTICS_WRITING_APP : mkvmerge v29.0.0 ('Like It Or Not') 64-bit
_STATISTICS_WRITING_DATE_UTC : 2019-02-21 05:14:39
_STATISTICS_TAGS : BPS DURATION NUMBER_OF_FRAMES NUMBER_OF_BYTES
Video #1
ID : 1
Format : AVC
Format/Info : Advanced Video Codec
Format profile : High@L4.0
Format settings, CABAC : Yes
Format settings, ReFrames : 7 frames
Codec ID : V_MPEG4/ISO/AVC
Duration : 1h 37mn
Bit rate : 4 850 Kbps
Width : 1 280 pixels
Height : 690 pixels
Display aspect ratio : 1.85:1
Frame rate mode : Constant
Frame rate : 23.976 fps
Color space : YUV
Chroma subsampling : 4:2:0
Bit depth : 8 bits
Scan type : Progressive
Bits/(Pixel*Frame) : 0.229
Stream size : 3.24 GiB (84%)
Writing library : x264 core 157 r2935 545de2f
Encoding settings : cabac=1 / ref=7 / deblock=1:-1:-1 / analyse=0x3:0x113 / me=umh / subme=11 / psy=1 / psy_rd=1.00:0.00 / mixed_ref=1 / me_range=28 / chroma_me=0 / trellis=2 / 8x8dct=1 / cqm=0 / deadzone=21,11 / fast_pskip=1 / chroma_qp_offset=-2 / threads=3 / lookahead_threads=1 / sliced_threads=0 / nr=0 / decimate=1 / interlaced=0 / bluray_compat=0 / constrained_intra=0 / bframes=16 / b_pyramid=2 / b_adapt=2 / b_bias=0 / direct=3 / weightb=1 / open_gop=0 / weightp=2 / keyint=230 / keyint_min=23 / scenecut=40 / intra_refresh=0 / rc=2pass / mbtree=0 / bitrate=4850 / ratetol=1.0 / qcomp=0.60 / qpmin=0 / qpmax=69 / qpstep=4 / cplxblur=20.0 / qblur=0.5 / ip_ratio=1.40 / pb_ratio=1.30 / aq=2:0.70
Language : Japanese
Default : Yes
Forced : No
Audio #2
ID : 2
Format : AC-3
Format/Info : Audio Coding 3
Mode extension : CM (complete main)
Format settings, Endianness : Big
Codec ID : A_AC3
Duration : 1h 37mn
Bit rate mode : Constant
Bit rate : 384 Kbps
Channel(s) : 6 channels
Channel positions : Front: L C R, Side: L R, LFE
Sampling rate : 48.0 KHz
Bit depth : 16 bits
Compression mode : Lossy
Stream size : 269 MiB (7%)
Title : DUB [Мосфильм-Мастер]
Language : Russian
Default : Yes
Forced : No
Audio #3
ID : 3
Format : AC-3
Format/Info : Audio Coding 3
Mode extension : CM (complete main)
Format settings, Endianness : Big
Codec ID : A_AC3
Duration : 1h 37mn
Bit rate mode : Constant
Bit rate : 384 Kbps
Channel(s) : 6 channels
Channel positions : Front: L C R, Side: L R, LFE
Sampling rate : 48.0 KHz
Bit depth : 16 bits
Compression mode : Lossy
Stream size : 269 MiB (7%)
Language : Japanese
Default : No
Forced : No
Text #4
ID : 4
Format : UTF-8
Codec ID : S_TEXT/UTF8
Codec ID/Info : UTF-8 Plain Text
Title : Мосфильм-Мастер
Language : Russian
Default : No
Forced : No
Text #5
ID : 5
Format : ASS
Codec ID : S_TEXT/ASS
Codec ID/Info : Advanced Sub Station Alpha
Compression mode : Lossless
Title : YakuSub Studio
Language : Russian
Default : No
Forced : No
Text #6
ID : 6
Format : UTF-8
Codec ID : S_TEXT/UTF8
Codec ID/Info : UTF-8 Plain Text
Language : English
Default : No
Forced : No-
-
[korsars.pro].t20646.torrent 
Торрент: Зарегистрирован [ 2019-04-18 12:06 ] · 93D699E23662A8D2EDAF876EC0994A9BA143B4F1

Скачать .torrent

Размер .torrent файла 20 KB

Статус: проверено
.torrent скачан: 8 раз
Размер: 3,85 GB
Правила
Похожие темы

Вы не зарегистрированы на нашем сайте. Вам доступна для скачивания только часть контента. Чтобы увидеть весь контент сайта, пожалуйста, зарегистрироруйтесь.

Дешевый и быстрый Сидбокс

Ключи и пин-коды

Игры, Кредитные карты, IP-телефония, Интернет провайдеры, Мобильная связь, Спутниковое ТВ

Электронные книги

Бизнес и экономика, Дом, быт, семья, досуг, Санкт-Петербург, Компьютеры и интернет, Наука и образование, Техническая литература, Юридическая литература

Цифровые товары

iTunes & App Store, Базы данных, Дизайн, Доступ к ресурсам, Kарты продления, ключи, Фотографии, Шаблоны для сайтов

Программное обеспечение

Безопасность, Игры, PC, Интернет, Мобильная связь, Программирование, Продвижение сайтов (SEO), Утилиты
У Вас отключен VIP статус, поэтому Вам показывается реклама на сайте. Вы можете поддержать наш ресурс и приобрести VIP статус, тем самым отключив показ рекламы на сайте, а ещё VIP пользователи получают возможность

смотреть аниме онлайн в HD качестве

(не распространяется на раздел Flarrow Films), а так же получить 5 инвайтов, которыми можно поделиться с друзьями или знакомыми.
Дешевый и быстрый Сидбокс

Ключи и пин-коды

Игры, Кредитные карты, IP-телефония, Интернет провайдеры, Мобильная связь, Спутниковое ТВ

Электронные книги

Бизнес и экономика, Дом, быт, семья, досуг, Санкт-Петербург, Компьютеры и интернет, Наука и образование, Техническая литература, Юридическая литература

Цифровые товары

iTunes & App Store, Базы данных, Дизайн, Доступ к ресурсам, Kарты продления, ключи, Фотографии, Шаблоны для сайтов

Программное обеспечение

Безопасность, Игры, PC, Интернет, Мобильная связь, Программирование, Продвижение сайтов (SEO), Утилиты
[Профиль] [ЛС]
Показать сообщения:    
Ответить на тему

Текущее время: 06-Дек 21:14

Часовой пояс: UTC + 4



Вы не можете начинать темы
Вы не можете отвечать на сообщения
Вы не можете редактировать свои сообщения
Вы не можете удалять свои сообщения
Вы не можете голосовать в опросах
Вы не можете прикреплять файлы к сообщениям
Вы можете скачивать файлы
Анализ сайта korsars.pro Яндекс.Метрика