Проповедник / Preacher (Майкл Словис, Эван Голдберг, Сет Роген) [s03] [2018, фэнтези, драма, детектив, приключения, WEB-DLRip 1080p | Flarrow Films]

Ответить на тему
Статистика раздачи [Обновить пиров]
Размер:  24,6 GB   |    Зарегистрирован:  3 года   |    .torrent скачан:  39 раз
Раздают:  5  [  0 KB/s  ]   Качают:  25  [  0 KB/s  ]   Подробная статистика пиров
 
   
 
 
Автор Сообщение

4udaki ®

Оффлайн

Медали


Пол: Мужской

Стаж: 6 лет 10 месяцев

Наличие запрета:

Сообщений: 11311

Откуда: korsars.pro

Отдача: 2 Mb/s

Загрузка: 20 Mb/s

Нажми


Скачать Adguard бесплатно

Создавать темы 01-Авг-2018 20:09

[Цитировать]

Проповедник / Preacher-Год выпуска: 2018
Страна:
США
Жанр: фэнтези, драма, детектив, приключения
Продолжительность: ~ 00:42:00 (серия)
Перевод: Любительский (многоголосый, закадровый) | Flarrow Films
Субтитры: отсутствуют-В ролях: Доминик Купер, Джозеф Гилган, Рут Негга, Йен Коллетти, Грэм МакТавиш, Пип Торренс, Ноа Тейлор, Джули Энн Эмери, Малкольм Баррет, Колин Каннингэм
Режиссёры: Майкл Словис, Эван Голдберг, Сет Роген-Рейтинг:
-Описание: Проповедник Джесси Кастер по воле случая стал носителем внутри своего естества странного существа по имени Генезис. Это дитя совокупления ангела и демона представляет собой одновременно чистый идеал и квинтэссенцию света, но также сгусток абсолютного зла. Генезис — единственное существо во Вселенной, которое может встать вровень с Богом, если того пожелает, а его носитель автоматически становится самым могущественным существом в материальном мире. И это проповедник Кастер.-Качество: WEB-DLRip 1080p
Формат: MKV (MPEG-4 AVC)
Видео: 1920x1080, 5 763 kb/s-10.0 Mb/s (зависит от серии), 23.976 FPS, 8 bit
Аудио RUS/ENG: AAC,288-297 kb/s (зависит от серии), 2 chanels, 48.0 kHz-

Скриншоты

-

MediaInfo

General
Unique ID : 202915022244400625045033480173915910542 (0x98A80302172E8BA8EB03168B927AB18E)
Complete name : D:\Downloads\Serials\Preacher.S03.Flarrow.Films.[free-tor]\Preacher.S03.E01.[free-tor].mkv
Format : Matroska
Format version : Version 4 / Version 2
File size : 3.02 GiB
Duration : 41 min 55 s
Overall bit rate : 10.3 Mb/s
Encoded date : UTC 2018-06-30 06:23:42
Writing application : mkvmerge v21.0.0 ('Tardigrades Will Inherit The Earth') 64-bit
Writing library : libebml v1.3.5 + libmatroska v1.4.8
Video
ID : 1
Format : AVC
Format/Info : Advanced Video Codec
Format profile : High@L4
Format settings : CABAC / 4 Ref Frames
Format settings, CABAC : Yes
Format settings, ReFrames : 4 frames
Codec ID : V_MPEG4/ISO/AVC
Duration : 41 min 55 s
Bit rate : 10.0 Mb/s
Width : 1 920 pixels
Height : 1 080 pixels
Display aspect ratio : 16:9
Frame rate mode : Constant
Frame rate : 23.976 (24000/1001) FPS
Color space : YUV
Chroma subsampling : 4:2:0
Bit depth : 8 bits
Scan type : Progressive
Bits/(Pixel*Frame) : 0.202
Stream size : 2.94 GiB (97%)
Default : Yes
Forced : No
Color range : Limited
Color primaries : BT.709
Transfer characteristics : BT.709
Matrix coefficients : BT.709
Audio
ID : 2
Format : AAC
Format/Info : Advanced Audio Codec
Format profile : LC
Codec ID : A_AAC-2
Duration : 41 min 55 s
Bit rate : 288 kb/s
Channel(s) : 2 channels
Channel positions : Front: L R
Sampling rate : 48.0 kHz
Frame rate : 46.875 FPS (1024 SPF)
Compression mode : Lossy
Stream size : 87.5 MiB (3%)
Default : Yes
Forced : No
-

Над релизом работали

Релиз от:

Роли озвучивали:
Lunar Arrow, Bzeke, Тань-УХ-а, Daelit, Cpt Drusha, Кристина Шерман
-01.09.2018 обновлено. Добавлена 10-я серия. Сезон окончен.-
[korsars.pro].t16368.torrent 
Торрент: Зарегистрирован [ 2018-09-01 14:37 ] · 4D3D2B30BA925FB33049CE9DB99CC8DC81565DE6

Скачать .torrent

Размер .torrent файла 63 KB

Статус: проверено
.torrent скачан: 39 раз
Размер: 24,6 GB
Правила
Skorp10n(01-Авг-18), Woitler(01-Авг-18), Киндзадза(15-Авг-18)
Похожие темы

Вы не зарегистрированы на нашем сайте. Вам доступна для скачивания только часть контента. Чтобы увидеть весь контент сайта, пожалуйста, зарегистрироруйтесь.

Дешевый и быстрый Сидбокс

Ключи и пин-коды

Игры, Кредитные карты, IP-телефония, Интернет провайдеры, Мобильная связь, Спутниковое ТВ

Электронные книги

Бизнес и экономика, Дом, быт, семья, досуг, Санкт-Петербург, Компьютеры и интернет, Наука и образование, Техническая литература, Юридическая литература

Цифровые товары

iTunes & App Store, Базы данных, Дизайн, Доступ к ресурсам, Kарты продления, ключи, Фотографии, Шаблоны для сайтов

Программное обеспечение

Безопасность, Игры, PC, Интернет, Мобильная связь, Программирование, Продвижение сайтов (SEO), Утилиты
У Вас отключен VIP статус, поэтому Вам показывается реклама на сайте. Вы можете поддержать наш ресурс и приобрести VIP статус, тем самым отключив показ рекламы на сайте, а ещё VIP пользователи получают возможность

смотреть аниме онлайн в HD качестве

(не распространяется на раздел Flarrow Films), а так же получить 5 инвайтов, которыми можно поделиться с друзьями или знакомыми.
Дешевый и быстрый Сидбокс

Ключи и пин-коды

Игры, Кредитные карты, IP-телефония, Интернет провайдеры, Мобильная связь, Спутниковое ТВ

Электронные книги

Бизнес и экономика, Дом, быт, семья, досуг, Санкт-Петербург, Компьютеры и интернет, Наука и образование, Техническая литература, Юридическая литература

Цифровые товары

iTunes & App Store, Базы данных, Дизайн, Доступ к ресурсам, Kарты продления, ключи, Фотографии, Шаблоны для сайтов

Программное обеспечение

Безопасность, Игры, PC, Интернет, Мобильная связь, Программирование, Продвижение сайтов (SEO), Утилиты
[Профиль] [ЛС]
Показать сообщения:    
Ответить на тему

Текущее время: 27-Сен 01:59

Часовой пояс: UTC + 4



Вы не можете начинать темы
Вы не можете отвечать на сообщения
Вы не можете редактировать свои сообщения
Вы не можете удалять свои сообщения
Вы не можете голосовать в опросах
Вы не можете прикреплять файлы к сообщениям
Вы можете скачивать файлы
Анализ сайта korsars.pro Яндекс.Метрика