Джессика Джонс / Jessica Jones (Ута Бризвитц, Розмари Родригез, Саймон Селлан Джоунс) [s02] [2018, фантастика, боевик, триллер, драма, криминал, WEB-DLRip 720p | Flarrow Films]

Ответить на тему
Статистика раздачи [Обновить пиров]
Размер:  11,8 GB   |    Зарегистрирован:  3 года 4 месяца   |    .torrent скачан:  19 раз
Раздают:  12  [  0 KB/s  ]   Качают:  11  [  0 KB/s  ]   Подробная статистика пиров
 
   
 
 
Автор Сообщение

4udaki ®

Оффлайн

Медали


Пол: Мужской

Стаж: 6 лет 10 месяцев

Наличие запрета:

Сообщений: 11326

Откуда: korsars.pro

Отдача: 2 Mb/s

Загрузка: 20 Mb/s

Нажми


Скачать Adguard бесплатно

Создавать темы 01-Май-2018 14:18

[Цитировать]

Джессика Джонс / Jessica Jones-Год выпуска: 2018
Страна:
США
Жанр: фантастика, боевик, триллер, драма, криминал
Продолжительность: ~ 00:53:00 (серия)
Перевод: Любительский (многоголосый, закадровый) | Flarrow Films
Субтитры: отсутствуют-В ролях: Кристен Риттер, Дэвид Теннант, Майк Колтер, Рэйчел Тейлор, Кэрри-Энн Мосс, Эйка Дарвилл, Эрин Мориарти, Уил Трэвэл, Сьюзи Абромейт, Фил Каппадора и др.
Режиссёры: Ута Бризвитц, Розмари Родригез, Саймон Селлан Джоунс-Рейтинг:
-Описание: После трагических событий, оборвавших короткую супергеройскую карьеру Джессики Джонс, девушка пытается восстановить свою личную жизнь и свою карьеру частного детектива, расследуя таинственную активность людей со сверхспособностями в Нью-Йорке.-Качество: WEB-DLRip 720p
Формат: MKV (MPEG-4 AVC)
Видео: ~1 540 kb/s, 1280x720, 23.976 fps
Аудио RUS/ENG: PCM (A_PCM/INT/LIT), 48 kHz, 1 ch (mono), ~768 kb/s-

Скриншоты

-

MediaInfo

General
Unique ID : 220554403352795783407469205344269563190 (0xA5ED3BA47849282A8604E2721642F536)
Complete name : D:\Downloads\Serials\Jessica.Jones.S02.Flarrow.Films.[free-tor]\Jessica.Jones.S02.E01.Flarrow.Films.[free-tor].mkv
Format : Matroska
Format version : Version 4 / Version 2
File size : 878 MiB
Duration : 53 min 55 s
Overall bit rate mode : Variable
Overall bit rate : 2 277 kb/s
Encoded date : UTC 2018-03-11 13:13:49
Writing application : mkvmerge v8.3.0 ('Over the Horizon') 64bit
Writing library : libebml v1.3.1 + libmatroska v1.4.2
Video
ID : 1
Format : AVC
Format/Info : Advanced Video Codec
Format profile : Main@L3.1
Format settings : CABAC / 3 Ref Frames
Format settings, CABAC : Yes
Format settings, ReFrames : 3 frames
Codec ID : V_MPEG4/ISO/AVC
Duration : 53 min 55 s
Bit rate mode : Variable
Bit rate : 1 540 kb/s
Maximum bit rate : 2 310 kb/s
Width : 1 280 pixels
Height : 720 pixels
Display aspect ratio : 16:9
Frame rate mode : Constant
Frame rate : 23.976 (24000/1001) FPS
Color space : YUV
Chroma subsampling : 4:2:0
Bit depth : 8 bits
Scan type : Progressive
Bits/(Pixel*Frame) : 0.070
Stream size : 582 MiB (66%)
Writing library : x264 core 148 r2715 7e75228
Encoding settings : cabac=1 / ref=3 / deblock=1:0:0 / analyse=0x1:0x111 / me=umh / subme=10 / psy=1 / psy_rd=1.00:0.00 / mixed_ref=1 / me_range=24 / chroma_me=1 / trellis=2 / 8x8dct=0 / cqm=0 / deadzone=21,11 / fast_pskip=1 / chroma_qp_offset=-2 / threads=8 / lookahead_threads=1 / sliced_threads=0 / nr=0 / decimate=1 / interlaced=0 / bluray_compat=0 / stitchable=1 / constrained_intra=0 / bframes=2 / b_pyramid=0 / b_adapt=2 / b_bias=0 / direct=3 / weightb=1 / open_gop=0 / weightp=2 / keyint=48 / keyint_min=25 / scenecut=0 / intra_refresh=0 / rc_lookahead=48 / rc=2pass / mbtree=1 / bitrate=1540 / ratetol=1.0 / qcomp=0.50 / qpmin=6 / qpmax=51 / qpstep=4 / cplxblur=20.0 / qblur=0.5 / vbv_maxrate=2310 / vbv_bufsize=3080 / nal_hrd=vbr / filler=0 / ip_ratio=1.40 / aq=1:1.00
Default : Yes
Forced : No
Audio
ID : 2
Format : PCM
Format settings : Little / Signed
Codec ID : A_PCM/INT/LIT
Duration : 53 min 55 s
Bit rate mode : Constant
Bit rate : 768 kb/s
Sampling rate : 48.0 kHz
Frame rate : 32.000 FPS (1500 SPF)
Bit depth : 16 bits
Stream size : 296 MiB (34%)
Default : Yes
Forced : No
-

Над релизом работали

Релиз от:

Роли озвучивали:
Алла Алёхина, Lunar Arrow, Daelit, Лизавета, Nogoodvoice, hAl, Dreamy Sleep, ElisaL, Sathal, Софья Моргенштерн
-Релиз без рекламы-30.04.2018 обновлено. Добавлена 6-я серия.
[korsars.pro].t15421.torrent 
Торрент: Зарегистрирован [ 2018-05-01 14:18 ] · 775382A12A3D321CC06708ABB76230EE6630C1B7

Скачать .torrent

Размер .torrent файла 31 KB

Статус: проверено
.torrent скачан: 19 раз
Размер: 11,8 GB
Правила
Похожие темы

Вы не зарегистрированы на нашем сайте. Вам доступна для скачивания только часть контента. Чтобы увидеть весь контент сайта, пожалуйста, зарегистрироруйтесь.

Дешевый и быстрый Сидбокс

Ключи и пин-коды

Игры, Кредитные карты, IP-телефония, Интернет провайдеры, Мобильная связь, Спутниковое ТВ

Электронные книги

Бизнес и экономика, Дом, быт, семья, досуг, Санкт-Петербург, Компьютеры и интернет, Наука и образование, Техническая литература, Юридическая литература

Цифровые товары

iTunes & App Store, Базы данных, Дизайн, Доступ к ресурсам, Kарты продления, ключи, Фотографии, Шаблоны для сайтов

Программное обеспечение

Безопасность, Игры, PC, Интернет, Мобильная связь, Программирование, Продвижение сайтов (SEO), Утилиты
У Вас отключен VIP статус, поэтому Вам показывается реклама на сайте. Вы можете поддержать наш ресурс и приобрести VIP статус, тем самым отключив показ рекламы на сайте, а ещё VIP пользователи получают возможность

смотреть аниме онлайн в HD качестве

(не распространяется на раздел Flarrow Films), а так же получить 5 инвайтов, которыми можно поделиться с друзьями или знакомыми.
Дешевый и быстрый Сидбокс

Ключи и пин-коды

Игры, Кредитные карты, IP-телефония, Интернет провайдеры, Мобильная связь, Спутниковое ТВ

Электронные книги

Бизнес и экономика, Дом, быт, семья, досуг, Санкт-Петербург, Компьютеры и интернет, Наука и образование, Техническая литература, Юридическая литература

Цифровые товары

iTunes & App Store, Базы данных, Дизайн, Доступ к ресурсам, Kарты продления, ключи, Фотографии, Шаблоны для сайтов

Программное обеспечение

Безопасность, Игры, PC, Интернет, Мобильная связь, Программирование, Продвижение сайтов (SEO), Утилиты
[Профиль] [ЛС]
Показать сообщения:    
Ответить на тему

Текущее время: 25-Сен 09:47

Часовой пояс: UTC + 4



Вы не можете начинать темы
Вы не можете отвечать на сообщения
Вы не можете редактировать свои сообщения
Вы не можете удалять свои сообщения
Вы не можете голосовать в опросах
Вы не можете прикреплять файлы к сообщениям
Вы можете скачивать файлы
Анализ сайта korsars.pro Яндекс.Метрика