Отряд самоубийц: Строгое наказание / Suicide Squad: Hell to Pay (Сэм Лью) [2018, мультфильм, боевик, WEBRip 720p | Flarrow Films]

Ответить на тему
Статистика раздачи [Обновить пиров]
Размер:  2,91 GB   |    Зарегистрирован:  3 года 2 месяца   |    .torrent скачан:  62 раза
Раздают:  129  [  0 KB/s  ]   Качают:  19  [  0 KB/s  ]   Подробная статистика пиров
 
   
 
 
Автор Сообщение

4udaki ®

Оффлайн

Медали


Пол: Мужской

Стаж: 6 лет 7 месяцев

Наличие запрета:

Сообщений: 10588

Откуда: korsars.pro

Отдача: 2 Mb/s

Загрузка: 20 Mb/s

Нажми


Скачать Adguard бесплатно

Создавать темы 04-Апр-2018 20:47

[Цитировать]

-Отряд самоубийц: Строгое наказание / Suicide Squad: Hell to Pay-Год выпуска: 2018
Страна:
США
Жанр: мультфильм, боевик
Продолжительность: 01:26:06
Перевод: Любительский (многоголосый, закадровый) | Flarrow Films (присутствует ненормативная лексика)
Субтитры: отсутствуют-В ролях: Кристиан Слэйтер, Си Томас Хауэлл, Тара Стронг, Ванесса Уильямс, Даня Рамирес, Билли Браун, Лиам МакИнтайр, Кристин Бауэр, Мэттью Мерсер, Гидеон Эмери
Режиссёры: Сэм Лью-Рейтинг:
-Описание: Целью отряда Икс становится мощный мистический объект, который они попытаются украсть, рискуя жизнями.-Качество: WEBRip 720p
Формат: MKV (MPEG-4 AVC)
Видео: 4 072 Кбит/с, 1280x720, ~ 23.976 FPS
Аудио RUS: PCM (A_PCM/INT/LIT), mono, 768 Кбит/с, 48.0 kHz-

Скриншоты

-

MediaInfo

General
Unique ID : 209111218209264550034419237158251346119 (0x9D515B0E3701490D8F96FE99DD3F38C7)
Complete name : D:\Downloads\Movies\Suicide.Squad.Hell.to.Pay.2018.WEBRip720p.Flarrow.Films.mkv
Format : Matroska
Format version : Version 4 / Version 2
File size : 2.91 GiB
Duration : 1 h 26 min
Overall bit rate : 4 842 kb/s
Movie name : Suicide.Squad.Hell.to.Pay.2018.720p.WEB-DL.DD5.1.H264-FGT
Encoded date : UTC 2018-04-04 16:14:07
Writing application : mkvmerge v8.3.0 ('Over the Horizon') 64bit
Writing library : libebml v1.3.1 + libmatroska v1.4.2
Video
ID : 1
Format : AVC
Format/Info : Advanced Video Codec
Format profile : High@L3.1
Format settings : 2 Ref Frames
Format settings, CABAC : No
Format settings, ReFrames : 2 frames
Codec ID : V_MPEG4/ISO/AVC
Duration : 1 h 26 min
Bit rate : 4 072 kb/s
Width : 1 280 pixels
Height : 720 pixels
Display aspect ratio : 16:9
Frame rate mode : Constant
Frame rate : 23.976 FPS
Color space : YUV
Chroma subsampling : 4:2:0
Bit depth : 8 bits
Scan type : Progressive
Bits/(Pixel*Frame) : 0.184
Stream size : 2.45 GiB (84%)
Title : Suicide.Squad.Hell.to.Pay.2018.720p.WEB-DL.DD5.1.H264-FGT
Language : English
Default : Yes
Forced : No
Color range : Limited
Color primaries : BT.709
Transfer characteristics : BT.709
Matrix coefficients : BT.709
Audio
ID : 2
Format : PCM
Format settings : Little / Signed
Codec ID : A_PCM/INT/LIT
Duration : 1 h 26 min
Bit rate mode : Constant
Bit rate : 768 kb/s
Sampling rate : 48.0 kHz
Frame rate : 32.000 FPS (1500 SPF)
Bit depth : 16 bits
Stream size : 473 MiB (16%)
Default : Yes
Forced : No
-

Над релизом работали

Релиз от:

Роли озвучивали:
Глеб Петров, Nogoodvoice, Александр Байсаров, Велес Ксайев, Дмитрий Савкин, ElisaL, Lunar Arrow, Dreamy Sleep, Molli_bolli, Daelit, Okana Tsoy, Ron.
-
[korsars.pro].t15175.torrent 
Торрент: Зарегистрирован [ 2018-04-04 20:47 ] · B881EA3DAD68A8F7F7541CBB781D42F9BB81E5DD

Скачать .torrent

Размер .torrent файла 15 KB

Статус: проверено
.torrent скачан: 62 раз
Размер: 2,91 GB
Правила
Skorp10n(04-Апр-18)
Похожие темы

Вы не зарегистрированы на нашем сайте. Вам доступна для скачивания только часть контента. Чтобы увидеть весь контент сайта, пожалуйста, зарегистрироруйтесь.

Дешевый и быстрый Сидбокс

Ключи и пин-коды

Игры, Кредитные карты, IP-телефония, Интернет провайдеры, Мобильная связь, Спутниковое ТВ

Электронные книги

Бизнес и экономика, Дом, быт, семья, досуг, Санкт-Петербург, Компьютеры и интернет, Наука и образование, Техническая литература, Юридическая литература

Цифровые товары

iTunes & App Store, Базы данных, Дизайн, Доступ к ресурсам, Kарты продления, ключи, Фотографии, Шаблоны для сайтов

Программное обеспечение

Безопасность, Игры, PC, Интернет, Мобильная связь, Программирование, Продвижение сайтов (SEO), Утилиты
У Вас отключен VIP статус, поэтому Вам показывается реклама на сайте. Вы можете поддержать наш ресурс и приобрести VIP статус, тем самым отключив показ рекламы на сайте, а ещё VIP пользователи получают возможность

смотреть аниме онлайн в HD качестве

(не распространяется на раздел Flarrow Films), а так же получить 5 инвайтов, которыми можно поделиться с друзьями или знакомыми.
Дешевый и быстрый Сидбокс

Ключи и пин-коды

Игры, Кредитные карты, IP-телефония, Интернет провайдеры, Мобильная связь, Спутниковое ТВ

Электронные книги

Бизнес и экономика, Дом, быт, семья, досуг, Санкт-Петербург, Компьютеры и интернет, Наука и образование, Техническая литература, Юридическая литература

Цифровые товары

iTunes & App Store, Базы данных, Дизайн, Доступ к ресурсам, Kарты продления, ключи, Фотографии, Шаблоны для сайтов

Программное обеспечение

Безопасность, Игры, PC, Интернет, Мобильная связь, Программирование, Продвижение сайтов (SEO), Утилиты
[Профиль] [ЛС]
Показать сообщения:    
Ответить на тему

Текущее время: 19-Июн 19:13

Часовой пояс: UTC + 4



Вы не можете начинать темы
Вы не можете отвечать на сообщения
Вы не можете редактировать свои сообщения
Вы не можете удалять свои сообщения
Вы не можете голосовать в опросах
Вы не можете прикреплять файлы к сообщениям
Вы можете скачивать файлы
Анализ сайта korsars.pro Яндекс.Метрика