Игра друзей / Tomodachi Game [S01] (2022) WEBRip 1080p от KORSARS | D | Crunchyroll

Ответить на тему
Статистика раздачи [Обновить пиров]
Размер:  15,74 GB   |    Зарегистрирован:  2 месяца 19 дней   |    .torrent скачан:  41 раз
Раздают:  25  [  36 KB/s  ]   Качают:  10  [  0 KB/s  ]   Подробная статистика пиров
   
 
Автор Сообщение

4udaki ®

Оффлайн

Медали


Пол: Мужской

Стаж: 7 лет 11 месяцев

Наличие запрета:

Сообщений: 27642

Откуда: korsars.pro

Отдача: 2 Mb/s

Загрузка: 20 Mb/s



Скачать Adguard бесплатно

Создавать темы 04-Июн-2022 19:02

[Цитировать]

Игра друзей / Tomodachi Game-Год выпуска: 2022
Страна:
Япония
Жанр: сёнен, игры, психологическое
Продолжительность: ~ 00:23:00 (серия)
Перевод: Дублированный | Force Media [Crunchyroll]
Режиссёр: Хирофуми Огура
Возрастное ограничение: 18+-Рейтинг:
-Релиз от: | за постер спасибо Anilibria-Описание:
В дружном сплочённом классе вдруг пропадает значительная сумма денег, которую ребята собирали для того, чтобы оплатить школьную поездку. Подозрение падает на Макото Сибэ и Сихо Савараги, которым сдавали наличность. Двое отважно берут на себя ответственность, несмотря на свою непричастность, так как истинный виновный не признался в содеянном. Самый большой урон кража наносит Юити Катагири, который всю жизнь страдает от финансовых проблем и много работал, чтобы скопить нужную сумму. Несколько дней спустя Юити и нескольких его близких друзей похищают. Некто, представившийся как Макото объявляет детям, что теперь они будут участвовать в «Игре друзей», в которой их дружба будет подвергнута проверке. Теперь Юити, который доверял друзьям и выдержал все трудности своего положения, сохранив позитивный настрой и волю к борьбе, только благодаря их поддержке, должен выяснить, кто из его так называемых друзей — настоящий, а кто — предатель.-Качество: WEBRip 1080p
Формат: MKV (MPEG-4 AVC)
Видео: 1920x1080, ~8 000 kb/s, 23.976 FPS, 8 bits
Аудио RUS: AAC LC, 128 kb/s, 2 channels, 44.1 kHz
Субтитры: русские (вшитые, на надписи) | Crunchyroll-

MediaInfo

General
Unique ID                   : 168038256117577823681704186285904527192 (0x7E6AFDAD52A093002291C063196E7F58)
Complete name               : [KORSARS]_Tomodachi.Game.[S01E01].WEBRip.1080p_[Crunchyroll].mkv
Format                      : Matroska
Format version              : Version 4
File size                   : 1.35 GiB
Duration                    : 22 min 50 s
Overall bit rate            : 8 484 kb/s
Movie name                  : [KORSARS]_Tomodachi.Game.[S01E01].WEBRip.1080p_[Crunchyroll]
Encoded date                : UTC 2022-06-04 13:00:06
Writing application         : mkvmerge v68.0.0 ('The Curtain') 64-bit
Writing library             : libebml v1.4.2 + libmatroska v1.6.4
Video
ID                          : 1
Format                      : AVC
Format/Info                 : Advanced Video Codec
Format profile              : Main@L4
Format settings             : CABAC / 4 Ref Frames
Format settings, CABAC      : Yes
Format settings, Reference  : 4 frames
Codec ID                    : V_MPEG4/ISO/AVC
Duration                    : 22 min 50 s
Bit rate                    : 8 000 kb/s
Width                       : 1 920 pixels
Height                      : 1 080 pixels
Display aspect ratio        : 16:9
Frame rate mode             : Constant
Frame rate                  : 23.976 (24000/1001) FPS
Color space                 : YUV
Chroma subsampling          : 4:2:0
Bit depth                   : 8 bits
Scan type                   : Progressive
Bits/(Pixel*Frame)          : 0.161
Stream size                 : 1.33 GiB (98%)
Title                       : [KORSARS]_Tomodachi.Game.[S01E01].WEBRip.1080p_[Crunchyroll]
Writing library             : x264 core 157 r2935 545de2f
Encoding settings           : cabac=1 / ref=3 / deblock=1:0:0 / analyse=0x1:0x111 / me=hex / subme=7 / psy=1 / psy_rd=1.00:0.00 / mixed_ref=1 / me_range=16 / chroma_me=1 / trellis=1 / 8x8dct=0 / cqm=0 / deadzone=21,11 / fast_pskip=1 / chroma_qp_offset=-2 / threads=9 / lookahead_threads=1 / sliced_threads=0 / nr=0 / decimate=1 / interlaced=0 / bluray_compat=0 / constrained_intra=0 / bframes=3 / b_pyramid=2 / b_adapt=1 / b_bias=0 / direct=1 / weightb=1 / open_gop=0 / weightp=2 / keyint=240 / keyint_min=24 / scenecut=40 / intra_refresh=0 / rc_lookahead=40 / rc=abr / mbtree=1 / bitrate=8000 / ratetol=1.0 / qcomp=0.60 / qpmin=0 / qpmax=69 / qpstep=4 / vbv_maxrate=20000 / vbv_bufsize=25000 / nal_hrd=none / filler=0 / ip_ratio=1.40 / aq=1:1.00
Default                     : Yes
Forced                      : No
Color range                 : Limited
Color primaries             : BT.709
Transfer characteristics    : BT.709
Matrix coefficients         : BT.709
Audio
ID                          : 2
Format                      : AAC LC
Format/Info                 : Advanced Audio Codec Low Complexity
Codec ID                    : A_AAC-2
Duration                    : 22 min 50 s
Bit rate                    : 128 kb/s
Channel(s)                  : 2 channels
Channel layout              : L R
Sampling rate               : 44.1 kHz
Frame rate                  : 43.066 FPS (1024 SPF)
Compression mode            : Lossy
Delay relative to video     : -23 ms
Stream size                 : 21.0 MiB (2%)
Title                       : [KORSARS]_Tomodachi.Game.[S01E01].WEBRip.1080p_[Crunchyroll]
Language                    : Russian
Default                     : Yes
Forced                      : No
--16.07.2022 обновлено. Добавлена 12 серии. Сезон окончен. Приятного просмотра.-Донат релизеру ^__^-
[korsars.pro].t58490.torrent 
Торрент: Зарегистрирован [ 2022-07-16 13:50 ] · 1A2B80EA7ADC0736D595EAC8AB43C9BFD054FE65

Скачать .torrent

Размер .torrent файла 41 KB

Статус: проверено
.torrent скачан: 41 раз
Размер: 15,74 GB
Правила
VLDeshka(04-Июн-22)
Похожие темы

Вы не зарегистрированы на нашем сайте. Вам доступна для скачивания только часть контента. Чтобы увидеть весь контент сайта, пожалуйста, зарегистрироруйтесь.

Дешевый и быстрый Сидбокс

Ключи и пин-коды

Игры, Кредитные карты, IP-телефония, Интернет провайдеры, Мобильная связь, Спутниковое ТВ

Электронные книги

Бизнес и экономика, Дом, быт, семья, досуг, Санкт-Петербург, Компьютеры и интернет, Наука и образование, Техническая литература, Юридическая литература

Цифровые товары

iTunes & App Store, Базы данных, Дизайн, Доступ к ресурсам, Kарты продления, ключи, Фотографии, Шаблоны для сайтов

Программное обеспечение

Безопасность, Игры, PC, Интернет, Мобильная связь, Программирование, Продвижение сайтов (SEO), Утилиты
У Вас отключен VIP статус, поэтому Вам показывается реклама на сайте. Вы можете поддержать наш ресурс и приобрести VIP статус, тем самым отключив показ рекламы на сайте, а ещё VIP пользователи получают возможность

смотреть аниме онлайн в HD качестве

(не распространяется на раздел Flarrow Films), а так же получить 5 инвайтов, которыми можно поделиться с друзьями или знакомыми.
Дешевый и быстрый Сидбокс

Ключи и пин-коды

Игры, Кредитные карты, IP-телефония, Интернет провайдеры, Мобильная связь, Спутниковое ТВ

Электронные книги

Бизнес и экономика, Дом, быт, семья, досуг, Санкт-Петербург, Компьютеры и интернет, Наука и образование, Техническая литература, Юридическая литература

Цифровые товары

iTunes & App Store, Базы данных, Дизайн, Доступ к ресурсам, Kарты продления, ключи, Фотографии, Шаблоны для сайтов

Программное обеспечение

Безопасность, Игры, PC, Интернет, Мобильная связь, Программирование, Продвижение сайтов (SEO), Утилиты


Последний раз редактировалось: 4udaki (2022-07-16 13:50), всего редактировалось 3 раз(а)
[Профиль] [ЛС]

4udaki ®

Оффлайн

Медали


Пол: Мужской

Стаж: 7 лет 11 месяцев

Наличие запрета:

Сообщений: 27642

Откуда: korsars.pro

Отдача: 2 Mb/s

Загрузка: 20 Mb/s



Скачать Adguard бесплатно

Создавать темы 10-Июн-2022 12:34 (спустя 5 дней)

[Цитировать]

10.06.2022 обновлено. Добавлена 7 серия. Приятного просмотра.
[Профиль] [ЛС]

4udaki ®

Оффлайн

Медали


Пол: Мужской

Стаж: 7 лет 11 месяцев

Наличие запрета:

Сообщений: 27642

Откуда: korsars.pro

Отдача: 2 Mb/s

Загрузка: 20 Mb/s



Скачать Adguard бесплатно

Создавать темы 02-Июл-2022 17:01 (спустя 22 дня)

[Цитировать]

Добавлена 8-10 серии. Приятного просмотра.
[Профиль] [ЛС]

4udaki ®

Оффлайн

Медали


Пол: Мужской

Стаж: 7 лет 11 месяцев

Наличие запрета:

Сообщений: 27642

Откуда: korsars.pro

Отдача: 2 Mb/s

Загрузка: 20 Mb/s



Скачать Adguard бесплатно

Создавать темы 09-Июл-2022 13:06 (спустя 6 дней)

[Цитировать]

09.07.2022 обновлено. Добавлена 11 серии. Приятного просмотра.
[Профиль] [ЛС]

4udaki ®

Оффлайн

Медали


Пол: Мужской

Стаж: 7 лет 11 месяцев

Наличие запрета:

Сообщений: 27642

Откуда: korsars.pro

Отдача: 2 Mb/s

Загрузка: 20 Mb/s



Скачать Adguard бесплатно

Создавать темы 16-Июл-2022 13:50 (спустя 7 дней)

[Цитировать]

16.07.2022 обновлено. Добавлена 12 серии. Сезон окончен. Приятного просмотра.
[Профиль] [ЛС]
Показать сообщения:    
Ответить на тему

Текущее время: 04-Окт 17:05

Часовой пояс: UTC + 4



Вы не можете начинать темы
Вы не можете отвечать на сообщения
Вы не можете редактировать свои сообщения
Вы не можете удалять свои сообщения
Вы не можете голосовать в опросах
Вы не можете прикреплять файлы к сообщениям
Вы можете скачивать файлы
Анализ сайта korsars.pro Яндекс.Метрика